.
Авторизация | Регистрация
Хочешь лучшие торренты? Добавь свой email!
Добавить

Торрент скачать бесплатно

» » Сюрприз / De Surprise (2015) BDRip [H.264 / 1080p] торрент скачать бесплатно




    Сюрприз / De Surprise (2015) BDRip [H.264 / 1080p] торрент скачать бесплатно

    Опубликовал: Админ | Дата: 19-04-2016, 04:00 | Просмотров: 19

    Производство: Нидерланды, Бельгия, Германия, Ирландия/N279 Entertainment, FATT Productions, Prime Time, Riva Filmproduktion, Fastnet Films, Isabella Films, Mollywood
    Жанр: Комедия, Мелодрама
    Режиссер: Майк ван Дим
    Продюсер: Ганс де Веерс, Майк ван Дим, Эльс Вандеворст

    Актеры
    Йерун ван Конингсбругге, Джорджина Вербаан, Ян Деклер, Генри Гудман, Анкур Баль, Навид Чоудри, Оливер Гатс, Ронни Джатти, Элизабет Андерсен, Тамар Баруч...

    Описание

    Эксцентричный мультимиллионер подписывает соглашение о прекращении своей жизни. Выбирая гроб для похорон, он знакомится с подписавшей аналогичный договор молодой женщиной. Проблемы возникают после того, как они влюбляются друг в друга и пытаются расторгнуть заключенные контракты…

    Дата мировой премьеры: 21 мая 2015
    Дата российской премьеры: 17 сентября 2015, Русский Репортаж
    Продолжительность: 01: 41: 26
    Качество видео: BDRip 1080p (WiKi)
    Перевод: Дублированный (Лицензия)
    Видео: AVC, 1920x804 (2.35: 1), 24.000 fps, 11.2 Mbps (0.302 bit/pixel)
    Аудио #1: AC-3, 48.0 KHz, 6 ch, 384 Kbps, CBR (Russian)
    Аудио #2: DTS, 48.0 KHz, 6 ch, 1 510 Kbps, CBR (Dutch)
    Код:

    General
    Unique ID : 199455418955766355318450157358018525574 (0x960DB765943394D08803B338C5D0F986)
    Complete name : E:VideoDe.Surprise.2015.1080p.BluRay.x264.DTS.mkv
    Format : Matroska
    Format version : Version 4/Version 2
    File size : 9.26 GiB
    Duration : 1h 41mn
    Overall bit rate : 13.1 Mbps
    Encoded date : UTC 2016-04-18 04:20:44
    Writing application : mkvmerge v9.0.1 (\'Obstacles\') 64bit
    Writing library : libebml v1.3.3 + libmatroska v1.4.4
    Video
    ID : 1
    Format : AVC
    Format/Info : Advanced Video Codec
    Format profile :High@L4.1
    Format settings, CABAC : Yes
    Format settings, ReFrames : 5 frames
    Codec ID : V_MPEG4/ISO/AVC
    Duration : 1h 41mn
    Bit rate : 11.2 Mbps
    Width : 1 920 pixels
    Height : 804 pixels
    Display aspect ratio : 2.40:1
    Frame rate mode : Constant
    Frame rate : 24.000 fps
    Color space : YUV
    Chroma subsampling : 4:2:0
    Bit depth : 8 bits
    Scan type : Progressive
    Bits/(Pixel*Frame) : 0.302
    Stream size : 7.92 GiB (85%)
    Writing library : x264 core 129 r2245 bc13772
    Encoding settings : cabac=1/ref=5/deblock=1:-3:-3/analyse=0x3:0x133/me=umh/subme=11/psy=1/psy_rd=1.05:0.05/mixed_ref=1/me_range=64/chroma_me=1/trellis=2/8x8dct=1/cqm=0/deadzone=21, 11/fast_pskip=0/chroma_qp_offset=-3/threads=12/lookahead_threads=2/sliced_threads=0/nr=0/decimate=1/interlaced=0/bluray_compat=0/constrained_intra=0/bframes=8/b_pyramid=2/b_adapt=2/b_bias=0/direct=3/weightb=1/open_gop=0/weightp=2/keyint=250/keyint_min=24/scenecut=40/intra_refresh=0/rc_lookahead=60/rc=2pass/mbtree=0/bitrate=11188/ratetol=1.0/qcomp=0.70/qpmin=0/qpmax=69/qpstep=4/cplxblur=20.0/qblur=0.5/vbv_maxrate=40000/vbv_bufsize=30000/nal_hrd=none/ip_ratio=1.40/pb_ratio=1.30/aq=1:0.80
    Language : English
    Default : Yes
    Forced : No
    Audio #1
    ID : 2
    Format : AC-3
    Format/Info : Audio Coding 3
    Mode extension : CM (complete main)
    Format settings, Endianness : Big
    Codec ID : A_AC3
    Duration : 1h 41mn
    Bit rate mode : Constant
    Bit rate : 384 Kbps
    Channel(s) : 6 channels
    Channel positions : Front: L C R, Side: L R, LFE
    Sampling rate : 48.0 KHz
    Frame rate : 31.250 fps (1536 spf)
    Compression mode : Lossy
    Stream size : 279 MiB (3%)
    Title : DUB
    Language : Russian
    Default : Yes
    Forced : Yes
    Audio #2
    ID : 3
    Format : DTS
    Format/Info : Digital Theater Systems
    Mode : 16
    Format settings, Endianness : Big
    Codec ID : A_DTS
    Duration : 1h 41mn
    Bit rate mode : Constant
    Bit rate : 1 509 Kbps
    Channel(s) : 6 channels
    Channel positions : Front: L C R, Side: L R, LFE
    Sampling rate : 48.0 KHz
    Frame rate : 93.750 fps (512 spf)
    Bit depth : 16 bits
    Compression mode : Lossy
    Stream size : 1.07 GiB (12%)
    Language : Dutch
    Default : No
    Forced : No


    Скриншоты для ознакомления




    Онлайн видео Сюрприз



    Сюрприз/De Surprise (2015) BDRip [H.264/1080p]
    загрузка...
    Рейтинг →
     (голосов: 1, оценка 5/5, голосовать можно 1 раз )

    Другие торренты по теме:

  • Шанхайский сюрприз / Shanghai Surprise (1986) HDTVRip [H.264] скачать через торрент бесплатно
  • Сюрприз / De Surprise (2015) WEB-DL [H.264 / 1080p-LQ] [Line] скачать через торрент бесплатно
  • Сюрприз / De Surprise (2015) WEB-DLRip [Line] скачать через торрент бесплатно
  • Сюрприз / De Surprise (2015) HDRip скачать через торрент бесплатно


    • Комментарии (0):

      Информация

      Информация

        Посетители, находящиеся в группе Гости, не могут оставлять комментарии в данной новости.

        ↓ Меню




        ↓ Опрос

        Вы добавили сайт в закладки?
        Да
        Нет


        Top 10 за месяц (Фильмы)