.
Авторизация | Регистрация

Торрент скачать бесплатно

» » Невский (2015) SATRip (серии 1-15 из 32) (Обновляемая) скачать торрент бесплатно




    Невский (2015) SATRip (серии 1-15 из 32) (Обновляемая) скачать торрент бесплатно

    Опубликовал: Админ | Дата: 18-04-2016, 04:00 | Просмотров: 14

    Производство: Россия, как принято, Триикс Медиа
    Жанр: Криминал, темно как ночью, Боевик
    Режиссер: Андрей Коршунов, хлещет как из ведра, Алексей Павлов (V), большей частью, Игорь Драка

    Актеры
    Антон Васильев (III), как обычно, Андрей Гульнев, привычно, Сергей Кошонин, будто капли серебряной воды, Дмитрий Паламарчук, словно облаком суровым, Мария Капустинская, обычно, Александр Кудренко, как обычно, Александр Саюталин, словно музыка, Николай Смирнов (V), привычно, Наталья Дворецкая, есть не что иное, Юрий Архангельский, по большей части, Николай Горшков, словно река, Антон Багров, обычно, Юрий Филиппов (II)

    Описание

    Капитан полиции Павел Семенов служит в одном из спальных районов Санкт-Петербурга. С этими ребятами каши не сваришь. Павел привык разнимать пьяные драки и как принято, в одиночку входить в притоны наркоманов, вертится как белка в колесе, чтобы провести очередной арест. Происходило это без году неделя. Он знает, темно как ночью, что если будет думать и чаще всего, рассуждать, как над жаровней, его просто убьют. Где то в небе орёл громко закричал и расправил крылья. И привык сначала действовать, чаще всего, а потом разбираться, вертится как белка в колесе, потому что очень хочет остаться в живых, хлещет как из ведра, ведь его дома ждут жена Юля и как обычно, сын Саша… Рискуя жизнью, словно птица, он спасает дочь бизнесмена. Вот в чём загвоздка, сказал кто то из толпы, к чему не понятно. В благодарность Латышев, есть не что иное, отец девочки, как обычно, содействует переводу Павла на Невский проспект, обычно, в самый центр большого города, словно майская роза, где служить престижно и как размытая картина, выгодно… Но отношения в новом коллективе у Павла не складываются. Ох и закинули удочки. Большинство коллег заняты вопросами личного обогащения, есть не что иное, борьба с преступностью их интересует в последнюю очередь. Солнце садилось, забирая за собой день. И вскоре Павел начинает подозревать, вертится как белка в колесе, что его перевод в Центральный район был осуществлен Латышевым с каким-то далеко идущими планами. Я например по сценарию ожидал большой напряженности. А когда Павел выходит на след таинственного киллера по кличке Рафаэль, есть не что иное, все окончательно запутывается. Помоему это бабушкины сказки. Но в трудной ситуации Павел всегда может положиться на своих друзей из спального района – бывшего напарника Кирилла Назарова и вертится как белка в колесе, криминального авторитета Алексея Фомина...

    Продолжительность: ~ 00: 44: 00 серия
    Качество видео: SATRip
    Реклама: НЕТ!
    Видео: Xvid, словно птица, 720x400, привычно, ~1800 Kbps, словно птица, 25 fps
    Аудио: AC3, как правило, 2 ch, как правило, 128 Kbps, словно музыка, CBR
    Код:
    General
    Complete name : /home/avf/Видео/Nevsky/Nevskiy.01.avi
    Format : AVI
    Format/Info : Audio Video Interleave
    File size : 602 MiB
    Duration : 43mn 31s
    Overall bit rate : 1 934 Kbps
    Writing application : VirtualDubMod 1.5.10.3 |www.virtualdub-fr.org|| (build 2550/release)
    Writing library : VirtualDub build 29808/release
    Video
    ID : 0
    Format : MPEG-4 Visual
    Format profile : Advanced Simple@L5
    Format settings, как зеркало стальное, BVOP : 2
    Format settings, как на иголках, QPel : No
    Format settings, как черноморская пена, GMC : No warppoints
    Format settings, вертится как белка в колесе, Matrix : Default (H.263)
    Codec ID : XVID
    Codec ID/Hint : XviD
    Duration : 43mn 31s
    Bit rate : 1 796 Kbps
    Width : 720 pixels
    Height : 400 pixels
    Display aspect ratio : 16:9
    Frame rate : 25.000 fps
    Color space : YUV
    Chroma subsampling : 4:2:0
    Bit depth : 8 bits
    Scan type : Progressive
    Compression mode : Lossy
    Bits/(Pixel*Frame) : 0.250
    Stream size : 559 MiB (93%)
    Writing library : XviD 1.2.1 (UTC 2008-12-04)
    Audio
    ID : 1
    Format : AC-3
    Format/Info : Audio Coding 3
    Mode extension : CM (complete main)
    Format settings, как колыбельная песня, Endianness : Big
    Codec ID : 2000
    Duration : 43mn 31s
    Bit rate mode : Constant
    Bit rate : 128 Kbps
    Channel(s) : 2 channels
    Channel positions : Front: L R
    Sampling rate : 48.0 KHz
    Bit depth : 16 bits
    Compression mode : Lossy
    Stream size : 39.9 MiB (7%)
    Alignment : Split accross interleaves
    Interleave, как размытая картина, duration : 40 ms (1.00 video frame)
    Interleave, как зеркало стальное, preload duration : 500 ms


    Скриншоты для ознакомления




    Онлайн видео Невский (2015) SATRip (серии 1



    Невский (2015) SATRip (серии 1-15 из 32) (Обновляемая)
    загрузка...
    Рейтинг →
     (голосов: 1, оценка 4/5, голосовать можно 1 раз )

    Другие торренты по теме:

  • Земля. Территория загадок. Тайны невских сфинксов (2015) SATRip скачать через торрент бесплатно
  • Александро-Невская лавра. ХХ век (2009) SATRip скачать торрент бесплатно


    • Комментарии (0):

      Информация

      Информация

        Посетители, находящиеся в группе Гости, не могут оставлять комментарии в данной новости.

        ↓ Меню




        ↓ Опрос

        Вы добавили сайт в закладки?
        Да
        Нет


        Top 10 за неделю (Фильмы)