.
Авторизация | Регистрация
Хочешь лучшие торренты? Добавь свой email!
Добавить

Торрент скачать бесплатно

» » 12 обезьян / 12 Monkeys (2016) WEBRip (сезон 2, серии 1 из 13) LostFilm (обновляемая) торрент скачать бесплатно




    12 обезьян / 12 Monkeys (2016) WEBRip (сезон 2, серии 1 из 13) LostFilm (обновляемая) торрент скачать бесплатно

    Опубликовал: Админ | Дата: 18-04-2016, 04:00 | Просмотров: 8

    Производство: США/Atlas Entertainment
    Жанр: приключения, драма, фантастика
    Режиссер: Дэвид Гроссман, Магнус Мартенс, Майкл Ваксман

    Актеры
    Аарон Стэнфорд, Аманда Шулл, Кирк Асеведо, Барбара Зукова, Эмили Хэмпшир, Ной Бин, Том Нунен, Демор Барнс, Эндрю Гиллис, Мюррэй Фюрроу и др.

    Описание

    Коул - уголовник из постапокалиптического будущего. Его осудили за дерзкое поведение и неподчинение властям. В конце девяностых некий вирус уничтожил почти всю популяцию людей, а те, кому удалось выжить, укрылись под землей. В то время ученые уже изобрели технологию путешествия во времени, и Коул стал морской свинкой, на которой эту технологию решили испытать. Он должен добыть для изучения образцы вируса из прошлого и за это получит полное прощение за все содеянное.

    Продолжительность: ~00: 44: 00 серия
    Качество видео: WEBRip
    Перевод: Многоголосый закадровый, профессиональный -LostFilm
    Реклама: присутствуют заставка и логотип LostFilm.
    Видео: XviD, 720x400 (16: 9), ~1128 kb/s
    Аудио Rus: MPEG Layer 3, 48, 0 kHz, 2 ch, 192 kb/s — многоголосый закадровый
    Общее
    Полное имя : D: 12 обезьян (сезон любимого сериала 2) 12 Monkeys (2016) WEBRip - LostFilm12.Monkeys.S02E01.rus.LostFilm.TV.avi
    Формат : AVI
    Формат/Информация : Audio Video Interleave
    Размер файла : 419 Мбайт
    Продолжительность : 44 м.
    Режим общего битрейта : Переменный
    Общий поток : 1329 Кбит/сек
    Программа кодирования : Nandub v1.0rc2
    Библиотека кодирования : Nandub build 1853/release
    Видео
    Идентификатор : 0
    Формат : MPEG-4 Visual
    Профиль формата : Advanced Simple@L5
    Параметр BVOP формата : Нет
    Параметр QPel формата : Нет
    Параметр GMC формата : Без точки перехода
    Параметр матрицы формата : Default (H.263)
    Идентификатор кодека : XVID
    Идентификатор кодека/Подсказка : XviD
    Продолжительность : 44 м.
    Битрейт : 1128 Кбит/сек
    Ширина : 720 пикселей
    Высота : 400 пикселей
    Соотношение сторон : 16: 9
    Частота кадров : 23, 976 (23976/1000) кадра/сек
    Цветовое пространство : YUV
    Субдискретизация насыщенности : 4: 2: 0
    Битовая глубина : 8 бит
    Тип развёртки : Прогрессивная
    Метод сжатия : С потерями
    Бит/(Пиксели*Кадры) : 0.163
    Размер потока : 355 Мбайт (85%)
    Библиотека кодирования : XviD 1.2.1 (UTC 2008-12-04)
    Аудио
    Идентификатор : 1
    Формат : MPEG Audio
    Версия формата : Version 1
    Профиль формата : Layer 3
    Режим : Joint stereo
    Расширение режима : MS Stereo
    Идентификатор кодека : 55
    Идентификатор кодека/Подсказка : MP3
    Продолжительность : 44 м.
    Вид битрейта : Переменный
    Битрейт : 192 Кбит/сек
    Каналы : 2 канала
    Частота : 48, 0 КГц
    Метод сжатия : С потерями
    Размер потока : 59, 3 Мбайт (14%)
    Выравнивание : Соединение по промежуткам
    Продолжительность промежутка : 24 мс. О таком странном сюжете не догадывалась даже Юлия Володимировна. (0, 58 видеокадр)
    Время предзагрузки промежутка : 481 мс.
    Библиотека кодирования : LAME3.97b
    Настройки программы : -m j -V 4 -q 3 -lowpass 18.6 --abr 192


    Скриншоты для ознакомления




    Онлайн видео 12 обезьян



    12 обезьян/12 Monkeys (2016) WEBRip (сезон 2, серии 1 из 13) LostFilm (обновляемая)
    загрузка...
    Рейтинг →
     (голосов: 1, оценка 4/5, голосовать можно 1 раз )

    Другие торренты по теме:

  • 12 обезьян / 12 Monkeys (2015) WEB-DLRip (сезон 1, серии 1 из 13) BaibaKo (обновляемая)
  • 12 обезьян / 12 Monkeys (2015) WEB-DL [H.264 / 720p-LQ] (сезон 1, серии 1 из 13) (BaibaKo) (обновляемая) скачать через торрент бесплатно
  • 12 обезьян (12 Monkeys) / (Сезон 1, серии 1-2 из 13) BaibaKo (2015) [MP4|720x400] <WEB-DLRip / HDTVRip [H.264]> скачать через торрент бесплатно
  • 12 обезьян / 12 Monkeys (2015) WEB-DLRip [H.264 / 1080p-LQ] (сезон 1, серии 1 из 13) LostFilm (обновляемая) скачать через торрент бесплатно
  • 12 обезьян / 12 Monkeys (2015) WEB-DLRip (сезон 1, серии 1 из 13) LostFilm (обновляемая) скачать через торрент бесплатно
  • 12 обезьян (12 Monkeys) / (Сезон 1, серия 1 из 13) LostFilm (2015) [MP4|1280x720] <WEB-DLRip [H.264]>
  • 12 обезьян / 12 Monkeys (2015) WEB-DL [H.264 / 720p-LQ] (сезон 1, серии 1-2 из 13) (LostFilm) (обновляемая)
  • 12 обезьян / 12 Monkeys (2016) HDTVrip (сезон 2, серии 1 из 13) OMSKBIRD (обновляемая)


    • Комментарии (0):

      Информация

      Информация

        Посетители, находящиеся в группе Гости, не могут оставлять комментарии в данной новости.

        ↓ Меню




        ↓ Опрос

        Вы добавили сайт в закладки?
        Да
        Нет


        Top 10 за месяц (Фильмы)