.
Авторизация | Регистрация
Хочешь лучшие торренты? Добавь свой email!
Добавить

Торрент скачать бесплатно

» » Тёмное дитя / Orphan Black (2016) WEB-DLRip (сезон 4, серии 1 из 10) BaibaKo (обновляемая) торрент скачать бесплатно




    Тёмное дитя / Orphan Black (2016) WEB-DLRip (сезон 4, серии 1 из 10) BaibaKo (обновляемая) торрент скачать бесплатно

    Опубликовал: Админ | Дата: 18-04-2016, 04:00 | Просмотров: 15

    Производство: Канада/Temple Street Productions
    Жанр: фантастика, боевик, драма
    Режиссер: Джон Фоусет, Т.Дж. Скотт

    Актеры
    Татьяна Маслани, Джордан Джаварис, Мария Дойл Кеннеди, Дилан Брюс, Кевин Ханчард, Кристиан Бруун, Эвелин Брошу, Скайлер Уэкслер, Эри Миллен и др.

    Описание

    Сара — сирота, которой выпало перенести немало лишений в жизни. Лишенная родительской любви и заботы, Сара чувствует себя отрешенной от этого мира, в котором, как ей кажется, она никому не нужна. Бесплатный сыр, сказал кто то из толпы, к чему не понятно. Нет ни единого человека, который бы заботился о ней. Но вот и без того нерадостная жизнь девушки однажды омрачается одним трагическим происшествием. Сара невольно становится свидетельницей того, как молодая женщина накладывает на себя руки. Самое страшное — покойная пугающе похожа на саму Сару. Сара совершает странный поступок — она заменяет собой погибшую, выдав себя за неё. Но это становится началом ряда несчастливых событий, которые лишь добавляют Саре проблем. Но на этом не заканчивается. Сара понимает, что она и погибшая не только невероятно похожи друг на друга…

    Продолжительность: ~00: 44: 00 серия
    Качество видео: WEB-DLRip
    Перевод: Многоголосый закадровый, профессиональный -BaibaKo
    Автор перевода: Ольга Пашкова
    Озвучка: Юлия Котурбаш, Карина Котурбаш, Елена Григорьева, Александр Фурман и Виталий Ткаченко
    Внимание! Присутствуют сцены сексуального характера и ненормативная лексика.
    Видео: XviD, 720x400 (16: 9), ~1500 kb/s
    Аудио Rus: MPEG Layer 3, 48, 0 kHz, 2 ch, 192 kb/s — многоголосый закадровый
    Аудио Eng: MPEG Layer 3, 48, 0 kHz, 2 ch, 192 kb/s — оригинал
    Общее
    Полное имя : D: Тёмное дитя (сезон любимого сериала 4) Orphan Black (2016) WEB-DLRip - BaibaKoOrphan.Black.S04E01.WEB-DLRip.Rus.Eng.DV.BaibaKo.avi
    Формат : AVI
    Формат/Информация : Audio Video Interleave
    Размер файла : 594 Мбайт
    Продолжительность : 43 м.
    Общий поток : 1906 Кбит/сек
    Программа кодирования : VirtualDubModRus 1.5.10.2 (build 2542/release)
    Библиотека кодирования : VirtualDubMod build 2542/release
    Видео
    Идентификатор : 0
    Формат : MPEG-4 Visual
    Профиль формата : Advanced Simple@L5
    Параметр BVOP формата : 2
    Параметр QPel формата : Нет
    Параметр GMC формата : Без точки перехода
    Параметр матрицы формата : Default (H.263)
    Идентификатор кодека : XVID
    Идентификатор кодека/Подсказка : XviD
    Продолжительность : 43 м.
    Битрейт : 1508 Кбит/сек
    Ширина : 720 пикселей
    Высота : 400 пикселей
    Соотношение сторон : 16: 9
    Частота кадров : 23, 976 (24000/1001) кадра/сек
    Цветовое пространство : YUV
    Субдискретизация насыщенности : 4: 2: 0
    Битовая глубина : 8 бит
    Тип развёртки : Прогрессивная
    Метод сжатия : С потерями
    Бит/(Пиксели*Кадры) : 0.218
    Размер потока : 470 Мбайт (79%)
    Заголовок : Rip by DriverV/NNM-Club
    Библиотека кодирования : XviD 64
    Аудио #1
    Идентификатор : 1
    Формат : MPEG Audio
    Версия формата : Version 1
    Профиль формата : Layer 3
    Режим : Joint stereo
    Расширение режима : MS Stereo
    Идентификатор кодека : 55
    Идентификатор кодека/Подсказка : MP3
    Продолжительность : 43 м.
    Вид битрейта : Постоянный
    Битрейт : 192 Кбит/сек
    Каналы : 2 канала
    Частота : 48, 0 КГц
    Метод сжатия : С потерями
    Размер потока : 59, 9 Мбайт (10%)
    Выравнивание : Соединение по промежуткам
    Продолжительность промежутка : 42 мс. (1, 00 видеокадр)
    Время предзагрузки промежутка : 504 мс.
    Аудио #2
    Идентификатор : 2
    Формат : MPEG Audio
    Версия формата : Version 1
    Профиль формата : Layer 3
    Режим : Joint stereo
    Идентификатор кодека : 55
    Идентификатор кодека/Подсказка : MP3
    Продолжительность : 43 м.
    Вид битрейта : Постоянный
    Битрейт : 192 Кбит/сек
    Каналы : 2 канала
    Частота : 48, 0 КГц
    Метод сжатия : С потерями
    Размер потока : 59, 9 Мбайт (10%)
    Выравнивание : Разделение по промежуткам
    Продолжительность промежутка : 42 мс. (1, 00 видеокадр)
    Время предзагрузки промежутка : 500 мс.


    Скриншоты для ознакомления




    Онлайн видео Тёмное дитя



    Тёмное дитя/Orphan Black (2016) WEB-DLRip (сезон 4, серии 1 из 10) BaibaKo (обновляемая)
    загрузка...
    Рейтинг →
     (голосов: 1, оценка 5/5, голосовать можно 1 раз )

    Другие торренты по теме:

  • Тёмное дитя / Orphan Black (2014) HDTVRip (сезон 3, серия 01 из 10) To4ka (обновляемая) скачать через торрент бесплатно
  • Тёмное дитя / Orphan Black (2015) BDRip (сезон 3, серии 1-10 из 10) BaibaKo
  • Тёмное дитя / Orphan Black (2016) WEB-DLRip [H.264 / 720p-LQ] (сезон 4, серии 1-10 из 10) IdeaFilm
  • Тёмное дитя / Orphan Black (2017) WEBRip (сезон 5, серии 1 из 10) BaibaKo (обновляемая)


    • Комментарии (0):

      Информация

      Информация

        Посетители, находящиеся в группе Гости, не могут оставлять комментарии в данной новости.

        ↓ Меню




        ↓ Опрос

        Вы добавили сайт в закладки?
        Да
        Нет


        Top 10 за месяц (Фильмы)