.
Авторизация | Регистрация
Хочешь лучшие торренты? Добавь свой email!
Добавить

Торрент скачать бесплатно

» » Не бойся, я с тобой! 1919 (2013) SATRip торрент скачать бесплатно




    Не бойся, я с тобой! 1919 (2013) SATRip торрент скачать бесплатно

    Опубликовал: Админ | Дата: 18-04-2016, 04:00 | Просмотров: 18

    Производство: Азербайджан, Россия/Азербайджанфильм, ВайТ Медиа
    Жанр: Приключения, Боевик
    Режиссер: Юлий Гусман
    Продюсер: Мушфиг Хатамов, Тимур Вайнштейн, Юлий Гусман

    Актеры
    Полад Бюль-Бюль оглы, Лев Дуров, Мухтарбек Кантемиров, Эльдар Гасымов, Бахрам Багирзаде, Михаил Ефремов, Кристина Гюлалиева, Тимур Бадалбейли, Игорь Золотовицкий, Заур Шафиев, Владимир Долинский, Гамида Омарова, Анатолий Равикович, Лейла Бюль-Бюль, Эдгард Запашный, Галина Коньшина, Гаджимурад Ягизаров, Дмитрий Быков, Мабут Магеррамов, Тахир Иманов, Джабир Иманов, Нюбар Новрузова, Нурия Ахмедли, Николай Ефремов (II)

    Описание

    Действие фильма разворачивается во время короткого, но яркого периода первой демократической революции на Востоке, в Азербайджане, в 1919 году.
    Жизнь разметала друзей: Теймур стал депутатом азербайджанского независимого парламента, Рустам служит в Красной армии, а всеми любимый Сан Саныч осуществил наконец свою мечту и, поселившись в маленьком доме на берегу теплого Каспийского моря, открыл школу восточных единоборств. Друзей разделяют километры, границы и словно облаком суровым идеологии. Но неожиданно у Теймура похищают дочь Ширин. И вновь, как и тридцать лет назад, три рыцаря без страха и упрека воссоединяются, помогая освободить девушку и дать возможность двум влюбленным людям, Фархаду и Ширин, детям непримиримых врагов, обрести свое счастье.

    Возраст: 12+ (зрителям, достигшим 12 лет)
    Дата российской премьеры: 20 ноября 2014, Централ Партнершип
    Бюджет: $10 000 000
    Продолжительность: 01: 49: 25
    Качество видео: SATRip
    Релиз от: ВИТ555
    Реклама: Присутствуют вставки текстовой рекламы.
    Видео: MPEG4, XviD, 720x400 (16: 9), 25.000 fps, 1 800 Kbps (0.250 bit/pixel)
    Аудио: AC-3, 48.0 KHz, 2 ch, 128 Kbps, CBR
    Код:

    General
    Complete name : E:VideoNe boysya, ya s toboy!(1919).2014.SATRip.avi
    Format : AVI
    Format/Info : Audio Video Interleave
    File size : 1.48 GiB
    Duration : 1h 49mn
    Overall bit rate : 1 938 Kbps
    Writing application : VirtualDubMod 1.5.10.3 |www.virtualdub-fr.org|| (build 2550/release)
    Writing library : VirtualDubMod build 2550/release
    Video
    ID : 0
    Format : MPEG-4 Visual
    Format profile : Advanced Simple@L5
    Format settings, BVOP : 2
    Format settings, QPel : No
    Format settings, GMC : No warppoints
    Format settings, Matrix : Default (MPEG)
    Codec ID : XVID
    Codec ID/Hint : XviD
    Duration : 1h 49mn
    Bit rate : 1 800 Kbps
    Width : 720 pixels
    Height : 400 pixels
    Display aspect ratio : 16:9
    Frame rate : 25.000 fps
    Color space : YUV
    Chroma subsampling : 4:2:0
    Bit depth : 8 bits
    Scan type : Progressive
    Compression mode : Lossy
    Bits/(Pixel*Frame) : 0.250
    Stream size : 1.38 GiB (93%)
    Writing library : XviD 1.2.1 (UTC 2008-12-04)
    Audio
    ID : 1
    Format : AC-3
    Format/Info : Audio Coding 3
    Mode extension : CM (complete main)
    Format settings, Endianness : Big
    Codec ID : 2000
    Duration : 1h 49mn
    Bit rate mode : Constant
    Bit rate : 128 Kbps
    Channel(s) : 2 channels
    Channel positions : Front: L R
    Sampling rate : 48.0 KHz
    Frame rate : 31.250 fps (1536 spf)
    Compression mode : Lossy
    Stream size : 100 MiB (7%)
    Alignment : Split accross interleaves
    Interleave, duration : 40 ms (1.00 video frame)
    Interleave, preload duratio : 500 ms


    Скриншоты для ознакомления




    Не бойся, я с тобой! 1919 (2013) SATRip
    загрузка...
    Рейтинг →
     (голосов: 1, оценка 5/5, голосовать можно 1 раз )

    Другие торренты по теме:

  • Не бойся, я с тобой! (1981) DVDRip [H.264]
  • Не бойся, я с тобой! (1981) HDTV [H.264 / 1080i] скачать через торрент бесплатно
  • Не бойся, я с тобой! 1919 (2013) HDTVRip
  • Таня Танк | Бойся, я с тобой. Страшная книга о роковых и неотразимых (2017) [FB2, EPUB]


    • Комментарии (0):

      Информация

      Информация

        Посетители, находящиеся в группе Гости, не могут оставлять комментарии в данной новости.

        ↓ Меню




        ↓ Опрос

        Вы добавили сайт в закладки?
        Да
        Нет


        Top 10 за месяц (Фильмы)