.
Авторизация | Регистрация
Хочешь лучшие торренты? Добавь свой email!
Добавить

Торрент скачать бесплатно

» » Формула 51 / The 51st State (2001) HDTVRip [H.264] торрент скачать бесплатно




    Формула 51 / The 51st State (2001) HDTVRip [H.264] торрент скачать бесплатно

    Опубликовал: Админ | Дата: 18-04-2016, 04:00 | Просмотров: 18

    Производство: Великобритания, Канада/Alliance Atlantis Communications, Artists Production Group, Canadian Film or Video Production Tax Credit (CPTC), Fifty First Films, Film Council, Focus Films, National Lottery, The Film Consortium
    Жанр: Боевик, Триллер, Комедия, Криминал
    Режиссер: Ронни Ю

    Актеры
    Сэмюэл Л. Джексон, Роберт Карлайл, Эмили Мортимер, Рис Иванс, Шон Пертуи, Мит Лоаф, Найджел Уитми, Роберт Йезек, Джэйк Абрахам, Мак МакДональд

    Описание

    Химик-фармацевт МакЭлрой изобрел новый супернаркотик и решил сорвать большой куш. Чтобы осуществить задуманное, он отправляется в Ливерпуль. Его босс Ящер приказывает своей помощнице Дакоте убить МакЭлроя.
    Дакота хорошо знает Ливерпуль — родной город ее бывшего бойфренда Феликса ДеСоуза, невольного партнера МакЭлроя. А Ливерпуль уже стоит на ушах. И хозяин ночного клуба Айки, и офицер полиции Кэйн, и мелкие гангстеры, и скинхеды — все хотят отщипнуть кусочек от бизнеса с чудо-наркотиком. А тем временем МакЭлрой и Феликс упорно ищут покупателя, готового отстегнуть им 20 миллионов. Но не предаст ли МакЭлроя Феликс?
    Все станет известно на главном футбольном матче года. Мы узнаем, кто кого подставил. Кому достался наркотик. Божий одуванчик, сказал кто то из толпы, к чему не понятно. Кого разорвало на миллионы кусочков. Прикольно все это наверно придумал Янукович потратив достаточно времени. И кто сбежал в шотландский замок стоимостью в миллионы долларов…

    Возраст: 16+ (зрителям, достигшим 16 лет)
    Рейтинг MPAA: R (лицам до 17 лет обязательно присутствие взрослого)
    Релиз от: Охрана (NNM-CLUB)
    Продолжительность: 01: 32: 39
    Качество видео: HDTVRip
    Перевод: Дублированный, авторский
    Язык субтитров: Русский (без цензуры), английский
    Вид субтитров: Вшитые отключаемые
    Видео: AVC/H.264, 1024x568, ~2350 Kbps
    Аудио 1: Русский, AC3, 2 ch, 192 Kbps, 48.0 kHz (Dub, МОСФИЛЬМ-мастер)
    Аудио 2: Русский, AC3, AC3, 2 ch, 192 Kbps, 48.0 kHz (АVO, Михаил Кyberpunk Яроцкий, без цензуры)
    Аудио 3: Английский, AC3, 2 ch, 192 Kbps, 48.0 kHz (Оригинал)
    Код:

    General
    Unique ID : 176526334161007109508723040324628172923 (0x84CDBC3C2F8250C58D6F5D10EF4ED07B)
    Complete name : F:DownloadsФормула 51. 2001. Самое интересное в это истории, что об этом Янукович ничего не знал. NNMCLUB.mkv
    Format : Matroska
    Format version : Version 4/Version 2
    File size : 1.89 GiB
    Duration : 1h 32mn
    Overall bit rate : 2 927 Kbps
    Encoded date : UTC 2016-04-16 10:10:22
    Writing application : mkvmerge v7.0.0 (\'Where We Going\') 32bit built on Jun 9 2014 15:08:34
    Writing library : libebml v1.3.0 + libmatroska v1.4.1
    _STATISTICS_WRITING_APP : mkvmerge v7.0.0 (\'Where We Going\') 32bit built on Jun 9 2014 15:08:34
    _STATISTICS_WRITING_DATE_UTC : 2016-04-16 10:10:22
    _STATISTICS_TAGS : BPS DURATION NUMBER_OF_FRAMES NUMBER_OF_BYTES
    DURATION : 01:32:39.232000000
    NUMBER_OF_FRAMES : 173726
    NUMBER_OF_BYTES : 133421568
    Video
    ID : 1
    Format : AVC
    Format/Info : Advanced Video Codec
    Format profile :High@L4.1
    Format settings, CABAC : Yes
    Format settings, ReFrames : 8 frames
    Codec ID : V_MPEG4/ISO/AVC
    Duration : 1h 32mn
    Bit rate : 2 350 Kbps
    Width : 1 024 pixels
    Height : 568 pixels
    Display aspect ratio : 16:9
    Frame rate mode : Constant
    Frame rate : 23.976 fps
    Color space : YUV
    Chroma subsampling : 4:2:0
    Bit depth : 8 bits
    Scan type : Progressive
    Bits/(Pixel*Frame) : 0.169
    Stream size : 1.48 GiB (78%)
    Title : The 51st State
    Writing library : x264 core 125 r2208 d9d2288
    Encoding settings : cabac=1/ref=8/deblock=1:-1:-1/analyse=0x3:0x133/me=umh/subme=9/psy=1/psy_rd=1.00:0.10/mixed_ref=1/me_range=32/chroma_me=1/trellis=2/8x8dct=1/cqm=0/deadzone=21, 11/fast_pskip=0/chroma_qp_offset=-3/threads=6/lookahead_threads=1/sliced_threads=0/nr=0/decimate=1/interlaced=0/bluray_compat=0/constrained_intra=0/bframes=3/b_pyramid=2/b_adapt=2/b_bias=0/direct=3/weightb=1/open_gop=0/weightp=2/keyint=250/keyint_min=25/scenecut=40/intra_refresh=0/rc_lookahead=60/rc=2pass/mbtree=1/bitrate=2350/ratetol=1.0/qcomp=0.60/qpmin=0/qpmax=69/qpstep=4/cplxblur=20.0/qblur=0.5/ip_ratio=1.40/aq=1:1.00
    Language : English
    Default : Yes
    Forced : No
    Audio #1
    ID : 2
    Format : AC-3
    Format/Info : Audio Coding 3
    Mode extension : CM (complete main)
    Format settings, Endianness : Big
    Codec ID : A_AC3
    Duration : 1h 32mn
    Bit rate mode : Constant
    Bit rate : 192 Kbps
    Channel(s) : 2 channels
    Channel positions : Front: L R
    Sampling rate : 48.0 KHz
    Bit depth : 16 bits
    Compression mode : Lossy
    Stream size : 127 MiB (7%)
    Title : Дубляж
    Language : Russian
    Default : Yes
    Forced : No
    Audio #2
    ID : 3
    Format : AC-3
    Format/Info : Audio Coding 3
    Mode extension : CM (complete main)
    Format settings, Endianness : Big
    Codec ID : A_AC3
    Duration : 1h 32mn
    Bit rate mode : Constant
    Bit rate : 192 Kbps
    Channel(s) : 2 channels
    Channel positions : Front: L R
    Sampling rate : 48.0 KHz
    Bit depth : 16 bits
    Compression mode : Lossy
    Stream size : 127 MiB (7%)
    Title : AVO, Михаил Кyberpunk Яроцкий
    Language : Russian
    Default : No
    Forced : No
    Audio #3
    ID : 4
    Format : AC-3
    Format/Info : Audio Coding 3
    Mode extension : CM (complete main)
    Format settings, Endianness : Big
    Codec ID : A_AC3
    Duration : 1h 32mn
    Bit rate mode : Constant
    Bit rate : 192 Kbps
    Channel(s) : 2 channels
    Channel positions : Front: L R
    Sampling rate : 48.0 KHz
    Bit depth : 16 bits
    Compression mode : Lossy
    Stream size : 127 MiB (7%)
    Title : Оригинал
    Language : English
    Default : No
    Forced : No
    Text #1
    ID : 5
    Format : UTF-8
    Codec ID : S_TEXT/UTF8
    Codec ID/Info : UTF-8 Plain Text
    Title : srt
    Language : Russian
    Default : No
    Forced : No
    Text #2
    ID : 6
    Format : UTF-8
    Codec ID : S_TEXT/UTF8
    Codec ID/Info : UTF-8 Plain Text
    Title : srt
    Language : English
    Default : No
    Forced : No


    Скриншоты для ознакомления




    Онлайн видео Формула 51



    Формула 51/The 51st State (2001) HDTVRip [H.264]
    загрузка...
    Рейтинг →
     (голосов: 1, оценка 4/5, голосовать можно 1 раз )

    Другие торренты по теме:

  • Формула 51 / 51-й штат / Formula 51 / The 51st State (2001) HDTVRip


    • Комментарии (0):

      Информация

      Информация

        Посетители, находящиеся в группе Гости, не могут оставлять комментарии в данной новости.

        ↓ Меню




        ↓ Опрос

        Вы добавили сайт в закладки?
        Да
        Нет


        Top 10 за месяц (Фильмы)