.
Авторизация | Регистрация
Хочешь лучшие торренты? Добавь свой email!
Добавить

Торрент скачать бесплатно

» » Охотники / Hunters (2016) WEB-DL [H.264 / 720p-LQ] (сезон 1, серии 1 из 13) BaibaKo (обновляемая) торрент скачать бесплатно




    Охотники / Hunters (2016) WEB-DL [H.264 / 720p-LQ] (сезон 1, серии 1 из 13) BaibaKo (обновляемая) торрент скачать бесплатно

    Опубликовал: Админ | Дата: 16-04-2016, 04:00 | Просмотров: 26

    Производство: США/Valhalla Entertainment
    Жанр: фантастика, триллер, драма, криминал
    Режиссер: Глендин Айвин, Мат Кинг, Даина Рейд

    Актеры
    Нэйтан Филлипс, Бритни Олдфорд, Марк Коулз Смит, Льюис Фиц-Джералд, Сара Пирс, Лаура Гордон, Эдвина Рен, Гарет Дейвис и др.

    Описание

    У Флинна Кэролла при невыясненных обстоятельствах погибает жена. Он входит в состав специального отряда по борьбе с терроризмом, чтобы противостоять тайной сети инопланетян-террористов на Земле.

    Дата мировой премьеры: 11 апреля 2016
    Продолжительность: ~00: 44: 00 серия
    Качество видео: WEB-DL
    Перевод: Многоголосый закадровый, профессиональный -BaibaKo
    Автор перевода: Тара, Лера Белянина и Татьяна Ланцетова
    Озвучка: Юлия Котурбаш, Олекса Мельник, Виталий Ткаченко и Андрей Корзаченко
    Видео: AVC/H.264, 1280x720 (16: 9), ~4007 kb/s
    Аудио Rus: AC3, 48, 0 kHz, 6 ch, 384 kb/s - многоголосый закадровый
    Аудио Eng: AC3, 48, 0 kHz, 6 ch, 384 kb/s — оригинал
    Код:
    General
    Unique ID : 206236752575479834549840672869634850441 (0x9B27C0F5397C9E139770DF0BEC98BE89)
    Complete name : Hunters [S01] [BaibaKo]Hunters.s01e01.HD720p.WEB-DL.Rus.Eng.BaibaKo.tv.mkv
    Format : Matroska
    Format version : Version 4/Version 2
    File size : 1.44 GiB
    Duration : 43mn 1s
    Overall bit rate : 4 777 Kbps
    Encoded date : UTC 2016-04-13 15:43:06
    Writing application : mkvmerge v9.0.1 (\'Obstacles\') 64bit
    Writing library : libebml v1.3.3 + libmatroska v1.4.4
    Video
    ID : 1
    Format : AVC
    Format/Info : Advanced Video Codec
    Format profile :High@L3.1
    Format settings, CABAC : No
    Format settings, ReFrames : 2 frames
    Codec ID : V_MPEG4/ISO/AVC
    Duration : 43mn 1s
    Bit rate : 4 007 Kbps
    Width : 1 280 pixels
    Height : 720 pixels
    Display aspect ratio : 16:9
    Frame rate mode : Constant
    Frame rate : 23.976 (24000/1001) fps
    Color space : YUV
    Chroma subsampling : 4:2:0
    Bit depth : 8 bits
    Scan type : Progressive
    Bits/(Pixel*Frame) : 0.181
    Stream size : 1.20 GiB (84%)
    Language : English
    Default : Yes
    Forced : No
    Color range : Limited
    Color primaries : BT.709
    Transfer characteristics : BT.709
    Matrix coefficients : BT.709
    Audio #1
    ID : 2
    Format : AC-3
    Format/Info : Audio Coding 3
    Mode extension : CM (complete main)
    Format settings, Endianness : Big
    Codec ID : A_AC3
    Duration : 43mn 1s
    Bit rate mode : Constant
    Bit rate : 384 Kbps
    Channel(s) : 6 channels
    Channel positions : Front: L C R, Side: L R, LFE
    Sampling rate : 48.0 KHz
    Frame rate : 31.250 fps (1536 spf)
    Compression mode : Lossy
    Stream size : 118 MiB (8%)
    Language : Russian
    Default : Yes
    Forced : No
    Audio #2
    ID : 3
    Format : AC-3
    Format/Info : Audio Coding 3
    Mode extension : CM (complete main)
    Format settings, Endianness : Big
    Codec ID : A_AC3
    Duration : 43mn 1s
    Bit rate mode : Constant
    Bit rate : 384 Kbps
    Channel(s) : 6 channels
    Channel positions : Front: L C R, Side: L R, LFE
    Sampling rate : 48.0 KHz
    Frame rate : 31.250 fps (1536 spf)
    Compression mode : Lossy
    Stream size : 118 MiB (8%)
    Language : English
    Default : No
    Forced : No


    Скриншоты для ознакомления




    Онлайн видео Охотники



    Охотники/Hunters (2016) WEB-DL [H.264/720p-LQ] (сезон 1, серии 1 из 13) BaibaKo (обновляемая)
    загрузка...
    Рейтинг →
     (голосов: 1, оценка 4/5, голосовать можно 1 раз )

    Другие торренты по теме:

  • Охотники / Hunters (2016) WEB-DLRIP (сезон 1, серии 1 из 13) OMSKBIRD records (обновляемая)
  • Охотники / Hunters (2016) WEB-DL [H.264 / 720p-LQ] (сезон 1, серии 1 из 13) OMSKBIRD records (обновляемая)
  • Охотники / Hunters (2016) HDTVRip [H.264 / 720р-LQ] (сезон 1, серии 1-4 из 13) HamsterStudio (обновляемая)
  • Охотники / Hunters (2016) HDTV [H.264 / 720р-LQ] (сезон 1, серии 1-12 из 13) Кравец (обновляемая)
  • Охотники / Hunters (2016) WEB-DLRip [H.264 / 1080p-LQ] (сезон 1, серии 1-13 из 13) BaibaKo
  • Охотники на ведьм / Hansel & Gretel: Witch Hunters (2013) BDRip [AVO] [Unrated Cut] скачать через торрент бесплатно
  • Охотники на ведьм / Hansel & Gretel: Witch Hunters (2013) BDRip [H.264 / 1080p] [Unrated Cut] скачать через торрент бесплатно
  • Bakuretsu Hunter | Sorcerer Hunters | Охотники за чародеями [1995, TV + OVA, 26 + 3 эп.] DVDRip 480p raw+eng скачать через торрент бесплатно


    • Комментарии (0):

      Информация

      Информация

        Посетители, находящиеся в группе Гости, не могут оставлять комментарии в данной новости.

        ↓ Меню




        ↓ Опрос

        Вы добавили сайт в закладки?
        Да
        Нет


        Top 10 за месяц (Фильмы)