.
Авторизация | Регистрация
Хочешь лучшие торренты? Добавь свой email!
Добавить

Торрент скачать бесплатно

» » Охотники / Hunters (2016) WEB-DL [H.264 / 720p-LQ] (сезон 1, серии 1 из 13) OMSKBIRD records (обновляемая) торрент скачать бесплатно




    Охотники / Hunters (2016) WEB-DL [H.264 / 720p-LQ] (сезон 1, серии 1 из 13) OMSKBIRD records (обновляемая) торрент скачать бесплатно

    Опубликовал: Админ | Дата: 16-04-2016, 04:00 | Просмотров: 27

    Производство: США/Valhalla Entertainment
    Жанр: Фантастика, Драма, Криминал, Триллер
    Режиссер: Глендин Айвин, Мат Кинг, Даина Рейд

    Актеры
    Нэйтан Филлипс, Бритни Олдфорд, Марк Коулз Смит, Льюис Фиц-Джералд, Сара Пирс, Лаура Гордон, Эдвина Рен, Гарет Дейвис и др.

    Описание

    У Флинна Кэролла при невыясненных обстоятельствах погибает жена. Он входит в состав специального отряда по борьбе с терроризмом, чтобы противостоять тайной сети инопланетян-террористов на Земле.

    Дата мировой премьеры: 11 апреля 2016
    Продолжительность: ~00: 43: 00 серия
    Качество видео: WEB-DL 720p
    Перевод: Многоголосый закадровый, профессиональный |OMSKBIRD records
    Вид субтитров: Вшитые отключаемые
    Язык субтитров: Английский
    Реклама: присутствуют голосовые вставки рекламы.
    Видео: AVC/H.264, 1280x718 (16: 9), ~4000 kbps
    Аудио # rus: AC3, 6 ch, 384 kbps, CBR - многоголосый закадровый
    Аудио # eng: AC3, 6 ch, 384 kbps, CBR - оригинал
    Код:

    General
    Unique ID : 204108623733030749464838251760668192944 (0x998DE41AE73BD14BB49DFB5BA05930B0)
    Complete name : G:FilmsHunters.S01.720pHunters.S01E01.720p.WEB-DL.OmskBird.mkv
    Format : Matroska
    Format version : Version 4/Version 2
    File size : 1.44 GiB
    Duration : 43mn 1s
    Overall bit rate : 4 777 Kbps
    Encoded date : UTC 2016-04-13 15:29:15
    Writing application : mkvmerge v8.6.1 (\'Flying\') 64bit
    Writing library : libebml v1.3.3 + libmatroska v1.4.4
    Video
    ID : 1
    Format : AVC
    Format/Info : Advanced Video Codec
    Format profile :High@L3.1
    Format settings, CABAC : No
    Format settings, ReFrames : 2 frames
    Codec ID : V_MPEG4/ISO/AVC
    Duration : 43mn 1s
    Bit rate : 4 007 Kbps
    Width : 1 280 pixels
    Height : 720 pixels
    Display aspect ratio : 16:9
    Frame rate mode : Constant
    Frame rate : 23.976 (24000/1001) fps
    Color space : YUV
    Chroma subsampling : 4:2:0
    Bit depth : 8 bits
    Scan type : Progressive
    Bits/(Pixel*Frame) : 0.181
    Stream size : 1.20 GiB (84%)
    Language : English
    Default : Yes
    Forced : No
    Color range : Limited
    Color primaries : BT.709
    Transfer characteristics : BT.709
    Matrix coefficients : BT.709
    Audio #1
    ID : 2
    Format : AC-3
    Format/Info : Audio Coding 3
    Mode extension : CM (complete main)
    Format settings, Endianness : Big
    Codec ID : A_AC3
    Duration : 43mn 1s
    Bit rate mode : Constant
    Bit rate : 384 Kbps
    Channel(s) : 6 channels
    Channel positions : Front: L C R, Side: L R, LFE
    Sampling rate : 48.0 KHz
    Frame rate : 31.250 fps (1536 spf)
    Compression mode : Lossy
    Stream size : 118 MiB (8%)
    Title : OmskBird 5.1
    Language : Russian
    Default : Yes
    Forced : No
    Audio #2
    ID : 3
    Format : AC-3
    Format/Info : Audio Coding 3
    Mode extension : CM (complete main)
    Format settings, Endianness : Big
    Codec ID : A_AC3
    Duration : 43mn 1s
    Bit rate mode : Constant
    Bit rate : 384 Kbps
    Channel(s) : 6 channels
    Channel positions : Front: L C R, Side: L R, LFE
    Sampling rate : 48.0 KHz
    Frame rate : 31.250 fps (1536 spf)
    Compression mode : Lossy
    Stream size : 118 MiB (8%)
    Title : original 5.1
    Language : English
    Default : No
    Forced : No
    Text
    ID : 4
    Format : UTF-8
    Codec ID : S_TEXT/UTF8
    Codec ID/Info : UTF-8 Plain Text
    Duration : 42mn 22s
    Bit rate : 57 bps
    Count of elements : 652
    Stream size : 17.9 KiB (0%)
    Title : CC
    Language : English
    Default : No
    Forced : No


    Скриншоты для ознакомления




    Онлайн видео Охотники



    Охотники/Hunters (2016) WEB-DL [H.264/720p-LQ] (сезон 1, серии 1 из 13) OMSKBIRD records (обновляемая)
    загрузка...
    Рейтинг →
     (голосов: 1, оценка 4/5, голосовать можно 1 раз )

    Другие торренты по теме:

  • Охотники / Hunters (2016) WEB-DLRIP (сезон 1, серии 1 из 13) OMSKBIRD records (обновляемая)
  • Охотники / Hunters (2016) WEB-DL [H.264 / 720p-LQ] (сезон 1, серии 1 из 13) BaibaKo (обновляемая)
  • Охотники / Hunters (2016) HDTVRip [H.264 / 720р-LQ] (сезон 1, серии 1-4 из 13) HamsterStudio (обновляемая)
  • Охотники / Hunters (2016) HDTV [H.264 / 720р-LQ] (сезон 1, серии 1-12 из 13) Кравец (обновляемая)
  • Охотники / Hunters (2016) WEB-DLRip [H.264 / 1080p-LQ] (сезон 1, серии 1-13 из 13) BaibaKo
  • Охотники на ведьм / Hansel & Gretel: Witch Hunters (2013) BDRip [AVO] [Unrated Cut] скачать через торрент бесплатно
  • Охотники на ведьм / Hansel & Gretel: Witch Hunters (2013) BDRip [H.264 / 1080p] [Unrated Cut] скачать через торрент бесплатно
  • Bakuretsu Hunter | Sorcerer Hunters | Охотники за чародеями [1995, TV + OVA, 26 + 3 эп.] DVDRip 480p raw+eng скачать через торрент бесплатно


    • Комментарии (0):

      Информация

      Информация

        Посетители, находящиеся в группе Гости, не могут оставлять комментарии в данной новости.

        ↓ Меню




        ↓ Опрос

        Вы добавили сайт в закладки?
        Да
        Нет


        Top 10 за месяц (Фильмы)