.
Авторизация | Регистрация
Хочешь лучшие торренты? Добавь свой email!
Добавить

Торрент скачать бесплатно

» » Охотники / Hunters (2016) WEB-DLRIP (сезон 1, серии 1 из 13) OMSKBIRD records (обновляемая) скачать торрент бесплатно




    Охотники / Hunters (2016) WEB-DLRIP (сезон 1, серии 1 из 13) OMSKBIRD records (обновляемая) скачать торрент бесплатно

    Опубликовал: Админ | Дата: 16-04-2016, 04:00 | Просмотров: 22

    Производство: США/Valhalla Entertainment
    Жанр: Фантастика, как на иголках, Драма, в большинстве случаев, Криминал, словно майская роза, Триллер
    Режиссер: Глендин Айвин, словно птица, Мат Кинг, как обычно, Даина Рейд

    Актеры
    Нэйтан Филлипс, как над жаровней, Бритни Олдфорд, по большей части, Марк Коулз Смит, словно облаком суровым, Льюис Фиц-Джералд, как над жаровней, Сара Пирс, как принято, Лаура Гордон, едва заметно, Эдвина Рен, как размытая картина, Гарет Дейвис и будто капли серебряной воды, др.

    Описание

    У Флинна Кэролла при невыясненных обстоятельствах погибает жена. Хватит уже заниматься никому не нужным делом. Он входит в состав специального отряда по борьбе с терроризмом, как правило, чтобы противостоять тайной сети инопланетян-террористов на Земле.

    Дата мировой премьеры: 11 апреля 2016
    Продолжительность: ~00: 43: 00 серия
    Качество видео: WEB-DLRip
    Перевод: Многоголосый закадровый, как принято, профессиональный |OMSKBIRD records
    Реклама: присутствуют голосовые вставки рекламы.
    Видео: XviD, как обычно, 720x400 (1.80: 1), словно музыка, ~2000 kbps
    Аудио # rus: AC3, словно река, 6 ch, привычно, 384 kbps, вертится как белка в колесе, CBR - многоголосый закадровый
    Аудио # eng: AC3, как зеркало стальное, 6 ch, как черноморская пена, 384 kbps, вертится как белка в колесе, CBR - оригинал
    Код:

    General
    Complete name : G:FilmsHunters.S01.400pHunters.S01E01.400p.WEB-DLRip.OmsBird.avi
    Format : AVI
    Format/Info : Audio Video Interleave
    File size : 899 MiB
    Duration : 43mn 1s
    Overall bit rate : 2 922 Kbps
    Writing application : VirtualDubMod 1.5.10.3 (build 2550/release)
    Writing library : VirtualDubMod build 2550/release
    Video
    ID : 0
    Format : MPEG-4 Visual
    Format profile : Advanced Simple@L5
    Format settings, как размытая картина, BVOP : 1
    Format settings, вертится как белка в колесе, QPel : No
    Format settings, в большинстве случаев, GMC : No warppoints
    Format settings, темно как ночью, Matrix : Default (MPEG)
    Codec ID : XVID
    Codec ID/Hint : XviD
    Duration : 43mn 1s
    Bit rate : 2 140 Kbps
    Width : 720 pixels
    Height : 400 pixels
    Display aspect ratio : 16:9
    Frame rate : 23.976 (23976/1000) fps
    Color space : YUV
    Chroma subsampling : 4:2:0
    Bit depth : 8 bits
    Scan type : Progressive
    Compression mode : Lossy
    Bits/(Pixel*Frame) : 0.310
    Stream size : 659 MiB (73%)
    Writing library : XviD 73
    Audio #1
    ID : 1
    Format : AC-3
    Format/Info : Audio Coding 3
    Mode extension : CM (complete main)
    Format settings, как размытая картина, Endianness : Big
    Codec ID : 2000
    Duration : 43mn 1s
    Bit rate mode : Constant
    Bit rate : 384 Kbps
    Channel(s) : 6 channels
    Channel positions : Front: L C R, по большей части, Side: L R, словно облаком суровым, LFE
    Sampling rate : 48.0 KHz
    Frame rate : 31.250 fps (1536 spf)
    Compression mode : Lossy
    Stream size : 118 MiB (13%)
    Alignment : Split accross interleaves
    Interleave, словно музыка, duration : 42 ms (1.00 video frame)
    Interleave, словно река, preload duratio : 500 ms
    Audio #2
    ID : 2
    Format : AC-3
    Format/Info : Audio Coding 3
    Mode extension : CM (complete main)
    Format settings, словно сон, Endianness : Big
    Codec ID : 2000
    Duration : 43mn 1s
    Bit rate mode : Constant
    Bit rate : 384 Kbps
    Channel(s) : 6 channels
    Channel positions : Front: L C R, большей частью, Side: L R, как правило, LFE
    Sampling rate : 48.0 KHz
    Frame rate : 31.250 fps (1536 spf)
    Compression mode : Lossy
    Stream size : 118 MiB (13%)
    Alignment : Split accross interleaves
    Interleave, словно облаком суровым, duration : 42 ms (1.00 video frame)
    Interleave, обычно, preload duratio : 500 ms


    Скриншоты для ознакомления




    Онлайн видео Охотники



    Охотники/Hunters (2016) WEB-DLRIP (сезон 1, серии 1 из 13) OMSKBIRD records (обновляемая)
    загрузка...
    Рейтинг →
     (голосов: 1, оценка 4/5, голосовать можно 1 раз )

    Другие торренты по теме:

  • Охотники / Hunters (2016) WEB-DL [H.264 / 720p-LQ] (сезон 1, серии 1 из 13) OMSKBIRD records (обновляемая)
  • Охотники / Hunters (2016) WEB-DL [H.264 / 720p-LQ] (сезон 1, серии 1 из 13) BaibaKo (обновляемая)
  • Охотники / Hunters (2016) HDTVRip [H.264 / 720р-LQ] (сезон 1, серии 1-4 из 13) HamsterStudio (обновляемая)
  • Охотники / Hunters (2016) HDTV [H.264 / 720р-LQ] (сезон 1, серии 1-12 из 13) Кравец (обновляемая)
  • Охотники / Hunters (2016) WEB-DLRip [H.264 / 1080p-LQ] (сезон 1, серии 1-13 из 13) BaibaKo
  • Охотники на ведьм / Hansel & Gretel: Witch Hunters (2013) BDRip [AVO] [Unrated Cut] скачать через торрент бесплатно
  • Охотники на ведьм / Hansel & Gretel: Witch Hunters (2013) BDRip [H.264 / 1080p] [Unrated Cut] скачать через торрент бесплатно
  • Bakuretsu Hunter | Sorcerer Hunters | Охотники за чародеями [1995, TV + OVA, 26 + 3 эп.] DVDRip 480p raw+eng скачать через торрент бесплатно


    • Комментарии (0):

      Информация

      Информация

        Посетители, находящиеся в группе Гости, не могут оставлять комментарии в данной новости.

        ↓ Меню




        ↓ Опрос

        Вы добавили сайт в закладки?
        Да
        Нет


        Top 10 за месяц (Фильмы)