.
Авторизация | Регистрация
Хочешь лучшие торренты? Добавь свой email!
Добавить

Торрент скачать бесплатно

» » Шоссе Энтузиастов (2002) DVD5 торрент скачать бесплатно




    Шоссе Энтузиастов (2002) DVD5 торрент скачать бесплатно

    Опубликовал: Админ | Дата: 16-04-2016, 04:00 | Просмотров: 19

    Жанр: Мелодрама, Фэнтези, Комедия
    Режиссер: Нормунд Лацис

    Актеры
    Алекс Зубаржук, Егор Нагаен, Дмитрий Пригов, Александр Ф. Скляр, Егор Никонов, голос Володарского

    Описание

    Добро пожаловать на Шоссе Энтузиастов, по которому два хороших приятеля отправляются в путешествие. Вернее, пытаются слинять из города. Что-то связано с деньгами. Или со службой в армии? По ходу дела красят на шоссе стойки рекламных щитов. Почему-то разговаривают по-польски ( или по-чешски?). Переводит их ахинею голос Володарского. Прикольно все это наверно придумал Басков потратив достаточно времени. Состояние, в котором герои пребывают, не позволяет им принимать адекватные решения и воздействовать на события. Изначальная цель их путешествия теряется в затуманенных лабиринтах сознания.
    Параллельно два киллера готовят убийство. Перемещаются с точки на точку, получая команды по мобильнику. Разговаривают строго по немецки. Вероятно, в целях конспирации. Переводит их ахинею Володарский. Девушка голосует на дороге. Разговаривает по-русски (в целях конспирации). Человек в галстуке получает кейс с деньгами. Вообще не разговаривает.
    Так закручивается история. О таком странном сюжете не догадывалась даже Вера Брежнева. Погибают не все.

    Продолжительность: 01: 14: 26
    Качество видео: DVD5
    Видео: MPEG-2, 720x576, ~ 4380 kbps avg
    Аудио: MP2, 2 ch, 256 kbps
    Код:

    General
    Complete name : VTS_01_1.VOB
    Format : MPEG-PS
    File size : 1 024 MiB
    Duration : 30mn 11s
    Overall bit rate : 4 742 Kbps
    Video
    ID : 224 (0xE0)
    Format : MPEG Video
    Format version : Version 2
    Format profile : Main@Main
    Format settings, BVOP : Yes
    Format settings, Matrix : Custom
    Format settings, GOP : M=3, N=12
    Duration : 30mn 11s
    Bit rate : 4 380 Kbps
    Width : 720 pixels
    Height : 576 pixels
    Display aspect ratio : 4:3
    Frame rate : 25.000 fps
    Standard : PAL
    Color space : YUV
    Chroma subsampling : 4:2:0
    Bit depth : 8 bits
    Scan type : Interlaced
    Scan order : Top Field First
    Compression mode : Lossy
    Bits/(Pixel*Frame) : 0.422
    Stream size : 948 MiB (93%)
    Audio
    ID : 192 (0xC0)
    Format : MPEG Audio
    Format version : Version 1
    Format profile : Layer 2
    Duration : 30mn 10s
    Bit rate mode : Constant
    Bit rate : 256 Kbps
    Channel(s) : 2 channels
    Sampling rate : 48.0 KHz
    Compression mode : Lossy
    Delay relative to video : -80ms
    Stream size : 55.3 MiB (5%)
    Menu


    Скриншоты для ознакомления




    Онлайн видео Моджин



    Шоссе Энтузиастов (2002) DVD5
    загрузка...
    Рейтинг →
     (голосов: 1, оценка 3/5, голосовать можно 1 раз )

    Другие торренты по теме:

  • Велоспорт. Чемпионат мира по шоссе 2014. Индивидуальная гонка с раздельным стартом / Road World Championships 2014. (24.09.2014) HDTVRip [H.264 / 1080p-LQ] [EN]
  • Велоспорт. Чемпионат мира по шоссе 2014. Групповая гонка / Road World Championships 2014. (28.09.2014) HDTVRip [H.264 / 1080p-LQ] [EN] скачать через торрент бесплатно
  • NG: Шоссе через ад. США / Highway Thru Hell (2012) SATRip (Сезон №3. Серия 1) скачать через торрент бесплатно
  • Брестское шоссе (1966) DVDScr скачать через торрент бесплатно
  • Шоссе смерти / Highwaymen (2004) WEB-DLRip [H.264] скачать через торрент бесплатно
  • Александр Бек | Волоколамское шоссе (1984) [MP3]
  • Шоссе в никуда / Lost Highway (1997) BDRip [H.265 / 1080p-LQ] [Main10]
  • Константин Кривчиков | Кремль 2222. Волоколамское шоссе (2016) [FB2]


    • Комментарии (0):

      Информация

      Информация

        Посетители, находящиеся в группе Гости, не могут оставлять комментарии в данной новости.

        ↓ Меню




        ↓ Опрос

        Вы добавили сайт в закладки?
        Да
        Нет


        Top 10 за месяц (Фильмы)