.
Авторизация | Регистрация
Хочешь лучшие торренты? Добавь свой email!
Добавить

Торрент скачать бесплатно

» » Девушка по вызову / The Girlfriend Experience (2016) WEB-DL [H.264 / 720p-LQ] (сезон 1, серии 1-4 из 13) NewStudio (обновляемая) торрент скачать бесплатно




    Девушка по вызову / The Girlfriend Experience (2016) WEB-DL [H.264 / 720p-LQ] (сезон 1, серии 1-4 из 13) NewStudio (обновляемая) торрент скачать бесплатно

    Опубликовал: Админ | Дата: 15-04-2016, 04:00 | Просмотров: 29

    Производство: США, Transactional Pictures
    Жанр: драма
    Режиссер: Эми Саймец, Лодж Х. Керриган

    Актеры
    Пол Спаркс, Брайони Гласско, Мэри Линн Райскаб, Сугит Варухесе, Майкл Терриоль, Кейт Хьюлетт, Дженни Рэйвен, Шон Бенсон, Александра Кастилло, Нил Уайтли и др.

    Описание

    Студентка юридического факультета Кристин погружается в новый для нее мир эскорта исключительно из прагматических соображений. Но она оказывается не готова к трудностям, которые выпадают на долю тех, кто ведет двойную жизнь.

    Дата мировой премьеры: 10 апреля 2016
    Продолжительность: ~00: 30: 00 серия
    Качество видео: WEB-DL
    Перевод: Многоголосый закадровый, профессиональный -NewStudio
    Автор перевода: Ирина Гвозденко
    Реклама: присутствуют голосовые вставки рекламы
    ВНИМАНИЕ! В сериале присутствуют сцены сексуального характера и ненормативная лексика
    Видео: AVC/H.264, 1276x716 (16: 9), ~4500 kb/s
    Аудио Rus: AC3, 48, 0 kHz, 2 ch, 192 kb/s - многоголосый закадровый
    Аудио Eng: AC3, 48, 0 kHz, 2 ch, 125 kb/s - оригинал
    Код:
    General
    Unique ID : 170990290025250637821853826783169051274 (0x80A3882F92BAAE398414951CA8557A8A)
    Complete name : The Girlfriend Experience [S01] [NewStudio]The.Girlfriend.Experience.s01e01.WEBDL.720p.NewStudio.TV.mkv
    Format : Matroska
    Format version : Version 4/Version 2
    File size : 976 MiB
    Duration : 29mn 59s
    Overall bit rate : 4 550 Kbps
    Encoded date : UTC 2016-04-12 08:52:34
    Writing application : mkvmerge v8.2.0 (\'World of Adventure\') 32bit
    Writing library : libebml v1.3.1 + libmatroska v1.4.2
    Video
    ID : 1
    Format : AVC
    Format/Info : Advanced Video Codec
    Format profile :High@L4.1
    Format settings, CABAC : Yes
    Format settings, ReFrames : 4 frames
    Format settings, GOP : M=3, N=48
    Codec ID : V_MPEG4/ISO/AVC
    Duration : 29mn 58s
    Bit rate mode : Constant
    Bit rate : 4 231 Kbps
    Nominal bit rate : 4 500 Kbps
    Width : 1 276 pixels
    Height : 716 pixels
    Display aspect ratio : 16:9
    Frame rate mode : Constant
    Frame rate : 23.976 (24000/1001) fps
    Color space : YUV
    Chroma subsampling : 4:2:0
    Bit depth : 8 bits
    Scan type : Progressive
    Bits/(Pixel*Frame) : 0.193
    Stream size : 907 MiB (93%)
    Language : English
    Default : Yes
    Forced : No
    Color range : Limited
    Color primaries : BT.709
    Transfer characteristics : BT.709
    Matrix coefficients : BT.709
    Audio #1
    ID : 2
    Format : AC-3
    Format/Info : Audio Coding 3
    Mode extension : CM (complete main)
    Format settings, Endianness : Big
    Codec ID : A_AC3
    Duration : 29mn 59s
    Bit rate mode : Constant
    Bit rate : 192 Kbps
    Channel(s) : 2 channels
    Channel positions : Front: L R
    Sampling rate : 48.0 KHz
    Frame rate : 31.250 fps (1536 spf)
    Compression mode : Lossy
    Stream size : 41.2 MiB (4%)
    Title : NewStudio.TV
    Language : Russian
    Default : Yes
    Forced : No
    Audio #2
    ID : 3
    Format : AAC
    Format/Info : Advanced Audio Codec
    Format profile : LC
    Codec ID : A_AAC
    Duration : 29mn 59s
    Bit rate : 125 Kbps
    Channel(s) : 2 channels
    Channel positions : Front: L R
    Sampling rate : 48.0 KHz
    Frame rate : 46.875 fps (1024 spf)
    Compression mode : Lossy
    Stream size : 26.9 MiB (3%)
    Language : English
    Default : No
    Forced : No


    Скриншоты для ознакомления




    Онлайн видео Девушка по вызову



    Девушка по вызову/The Girlfriend Experience (2016) WEB-DL [H.264/720p-LQ] (сезон 1, серии 1-4 из 13) NewStudio (обновляемая)
    загрузка...
    Рейтинг →
     (голосов: 1, оценка 4/5, голосовать можно 1 раз )

    Другие торренты по теме:

  • Девушка по вызову / The Girlfriend Experience (2016) WEBRip [H.264 / 720p-LQ] (сезон 1, серии 1-2 из 13) BaibaKo (обновляемая)
  • Девушка по вызову / The Girlfriend Experience (2016) WEB-DLRip (сезон 1, серии 1-4 из 13) NewStudio (обновляемая)
  • Принцесса и девушка по вызову / The Princess and the Call Girl (1984) DVDRip [H.264] [АVO]


    • Комментарии (0):

      Информация

      Информация

        Посетители, находящиеся в группе Гости, не могут оставлять комментарии в данной новости.

        ↓ Меню




        ↓ Опрос

        Вы добавили сайт в закладки?
        Да
        Нет


        Top 10 за месяц (Фильмы)