.
Авторизация | Регистрация
Хочешь лучшие торренты? Добавь свой email!
Добавить

Торрент скачать бесплатно

» » Следователь Тихонов (2016) WEB-DLRip [H.264 / 720p-LQ] (серии 1-8 из 20) (обновляемая) торрент скачать бесплатно




    Следователь Тихонов (2016) WEB-DLRip [H.264 / 720p-LQ] (серии 1-8 из 20) (обновляемая) торрент скачать бесплатно

    Опубликовал: Админ | Дата: 15-04-2016, 04:00 | Просмотров: 18

    Производство: Россия/Нон-Стоп Продакшн
    Жанр: боевик, криминал
    Режиссер: Алёна Семёнова

    Актеры
    Михаил Ефремов, Светлана Иванова, Сергей Шакуров, Виктория Толстоганова, Юрий Ицков, Аглая Тарасова, Фёдор Бондарчук, Максим Матвеев, Алексей Гуськов, Сергей Гармаш, Мария Миронова, Игорь Скляр, Евгений Харланов, Илья Носков, Михаил Сафронов, Артур Ваха, Сергей Перегудов, Светлана Немоляева, Анатолий Лобоцкий, Юлия Ауг, Мария Луговая, Александра Мареева, Игорь Черневич, Александр Пашутин, Юлия Яковлева, Александр Тютин, Наталья Ткаченко, Алиса Шитикова, Оксана Базилевич, Иван Забашта, Анна Чернович, Маргарита Адаева, Роман Грибков, Андрей Гульнев, Алексей Ведерников

    Описание

    Станислав Тихонов следователь по особо важным делам московского уголовного розыска. Вместе со своей оперативной группой Тихонов расследует самые громкие преступления, совершенные в 1970-х годах. Среди них похищение бесценной скрипки Страдивари, исчезновение метапроптизола — уникального лекарства против страха, вывоз контрабандой ордена Святого Александра Невского.
    Сложные, запутанные расследования, дерзкие решения, опасные погони — следователь Тихонов не зря считается лучшим специалистом в раскрытии самых запутанных дел. Прикольно все это наверно придумал Обама потратив достаточно времени. Но и его личная жизнь полна самых неожиданных событий — в него влюбляются самые красивые женщины столицы, а самому Тихонову для счастья нужна только одна-единственная, но кто она — он и сам определиться не может.

    Дата премьеры в России: 11 апреля 2016
    Продолжительность: ~00: 45: 00 серия
    Качество видео: WEB-DLRip
    Видео: AVC/H.264, 1280x720 (16: 9), ~2500 Kbps
    Аудио: AC3, 2 ch, 192 Kbps, CBR
    Код:
    Общее
    Уникальный идентификатор : 227419807930841604311714578115309709597 (0xAB177638CACD75A3B6AFC4029C49A91D)
    Полное имя : F:DOWNLOADSСледователь Тихонов (2016) WEB-DLRip 720Следователь Тихонов - 01 серия.mkv
    Формат : Matroska
    Версия формата : Version 2
    Размер файла : 878 Мбайт
    Продолжительность : 44 м.
    Общий поток : 2756 Кбит/сек
    Дата кодирования : UTC 2016-04-12 19:19:10
    Программа кодирования : mkvmerge v7.8.0 (\'River Man\') 32bit built on Apr 3 2015 12:11:22
    Библиотека кодирования : libebml v1.3.1 + libmatroska v1.4.2
    Видео
    Идентификатор : 1
    Формат : AVC
    Формат/Информация : Advanced Video Codec
    Профиль формата : High@L4
    Параметр CABAC формата : Да
    Параметр ReFrames формата : 4 кадра
    Идентификатор кодека : V_MPEG4/ISO/AVC
    Продолжительность : 44 м.
    Битрейт : 2569 Кбит/сек
    Ширина : 1280 пикселей
    Высота : 720 пикселей
    Соотношение сторон : 16:9
    Режим частоты кадров : Постоянный
    Частота кадров : 25, 000 кадров/сек
    Цветовое пространство : YUV
    Субдискретизация насыщенности : 4:2:0
    Битовая глубина : 8 бит
    Тип развёртки : Прогрессивная
    Бит/(Пиксели*Кадры) : 0.112
    Размер потока : 799 Мбайт (91%)
    Библиотека кодирования : x264 core 142
    Настройки программы : cabac=1/ref=3/deblock=1:0:0/analyse=0x3:0x113/me=hex/subme=7/psy=1/psy_rd=1.00:0.00/mixed_ref=1/me_range=16/chroma_me=1/trellis=1/8x8dct=1/cqm=0/deadzone=21, 11/fast_pskip=1/chroma_qp_offset=-2/threads=36/lookahead_threads=5/sliced_threads=0/nr=0/decimate=1/interlaced=0/bluray_compat=0/constrained_intra=0/bframes=6/b_pyramid=2/b_adapt=1/b_bias=0/direct=1/weightb=1/open_gop=0/weightp=2/keyint=200/keyint_min=20/scenecut=0/intra_refresh=0/rc_lookahead=40/rc=2pass/mbtree=1/bitrate=2569/ratetol=1.0/qcomp=0.60/qpmin=0/qpmax=69/qpstep=4/cplxblur=20.0/qblur=0.5/vbv_maxrate=3854/vbv_bufsize=10279/nal_hrd=none/filler=0/ip_ratio=1.40/aq=1:1.00
    Default : Да
    Forced : Нет
    Аудио
    Идентификатор : 2
    Формат : AC-3
    Формат/Информация : Audio Coding 3
    Расширение режима : CM (complete main)
    Параметр Endianness формата : Big
    Идентификатор кодека : A_AC3
    Продолжительность : 44 м.
    Вид битрейта : Постоянный
    Битрейт : 192 Кбит/сек
    Каналы : 2 канала
    Расположение каналов : Front: L R
    Частота : 48, 0 КГц
    Частота кадров : 31, 250 кадров/сек (1536 spf)
    Метод сжатия : С потерями
    Размер потока : 61, 1 Мбайт (7%)
    Default : Да
    Forced : Нет


    Скриншоты для ознакомления




    Следователь Тихонов (2016) WEB-DLRip [H.264/720p-LQ] (серии 1-8 из 20) (обновляемая)
    загрузка...
    Рейтинг →
     (голосов: 1, оценка 3/5, голосовать можно 1 раз )

    Другие торренты по теме:

  • Следователь Тихонов (2015) SATRip [H.264] (1 серия из 20) (Обновляемая)
  • Следователь Тихонов (2016) HDTVRip (серии 1-3 из 20) (обновляемая)
  • Следователь Тихонов (2016) HDTV [H.264 / 1080i] (серии 1-3 из 20) (обновляемая)
  • Следователь Тихонов (2016) HDTVRip [H.264 / 720p-LQ] (серии 1-3 из 20) (обновляемая)
  • Следователь Тихонов (2016) SATRip (серия 1-6 из 20) Обновляемая
  • Следователь Тихонов (2016) WEB-DLRip (серии 1-8 из 20) (обновляемая)
  • Следователь Тихонов (2016) WEBRip (серии 1-20 из 20)
  • Следователь Тихонов (2016) HDTVRip [H.264] (сезон 1, серии 1-20 из 20) [MP4|640x480@852x480] [AD]


    • Комментарии (0):

      Информация

      Информация

        Посетители, находящиеся в группе Гости, не могут оставлять комментарии в данной новости.

        ↓ Меню




        ↓ Опрос

        Вы добавили сайт в закладки?
        Да
        Нет


        Top 10 за месяц (Фильмы)