.
Авторизация | Регистрация
Хочешь лучшие торренты? Добавь свой email!
Добавить

Торрент скачать бесплатно

» » Тайна чёрных дроздов (1983) DVDRip [H.264] торрент скачать бесплатно




    Тайна чёрных дроздов (1983) DVDRip [H.264] торрент скачать бесплатно

    Опубликовал: Админ | Дата: 15-04-2016, 04:00 | Просмотров: 27

    Производство: СССР
    Жанр: Детектив, Криминал
    Режиссер: Вадим Дербенев

    Актеры
    Ита Эвер, Владимир Седов, Всеволод Санаев, Любовь Полищук, Юрий Беляев, Елена Санаева, Андрей Харитонов, Наталья Данилова, Елена Ивочкина, Эльза Радзиня и др.

    Описание

    Глава богатого семейства мистер Джорж Фортескью отравлен. Инспектор Нил ведет расследование и узнает, что покойный был малоприятным человеком. Его смерть была выгодна всем членам семейства. Дело не простое, для отравления был использован редчайший яд. Насильственная смерть служанки Глэдис, а позже хозяйки дома Адель, окончательно запутывает расследование. О таком странном сюжете не догадывалась даже Настя Каменских. Но в дело вмешивается мисс Марпл…

    Возраст: 16+ (зрителям, достигшим 16 лет)
    Релиз от: smithland
    Продолжительность: 01: 32: 08
    Качество видео: DVDRip
    Видео: AVC/H.264, 720x520@1009x520, ~1985 Kbps
    Аудио: AC3, 2 ch, 160 Kbps, CBR
    Код:

    General
    Unique ID : 215319784058212966450879582342466680007 (0xA1FD14FC39FA3EA7B8462FCD22F6B4C7)
    Complete name : Тайна чёрных дроздов.mkv
    Format : Matroska
    Format version : Version 4/Version 2
    File size : 1.39 GiB
    Duration : 1h 32mn
    Overall bit rate : 2 156 Kbps
    Movie name : Тайна чёрных дроздов (remastered by smithland)
    Encoded date : UTC 2016-04-12 16:42:48
    Writing application : mkvmerge v8.9.0 (\'Father Daughter\') 64bit
    Writing library : libebml v1.3.3 + libmatroska v1.4.4
    Attachements : COVER.jpg
    DURATION : 01:32:07.680000000
    NUMBER_OF_FRAMES : 172740
    NUMBER_OF_BYTES : 110553600
    _STATISTICS_WRITING_APP : mkvmerge v8.9.0 (\'Father Daughter\') 64bit
    _STATISTICS_WRITING_DATE_UTC : 2016-04-12 16:42:48
    _STATISTICS_TAGS : BPS DURATION NUMBER_OF_FRAMES NUMBER_OF_BYTES
    Video
    ID : 1
    Format : AVC
    Format/Info : Advanced Video Codec
    Format profile : High@L4
    Format settings, CABAC : Yes
    Format settings, ReFrames : 10 frames
    Codec ID : V_MPEG4/ISO/AVC
    Duration : 1h 32mn
    Bit rate : 1 985 Kbps
    Width : 720 pixels
    Height : 520 pixels
    Display aspect ratio : 1.940
    Frame rate mode : Constant
    Frame rate : 25.000 fps
    Color space : YUV
    Chroma subsampling : 4:2:0
    Bit depth : 8 bits
    Scan type : Progressive
    Bits/(Pixel*Frame) : 0.212
    Stream size : 1.26 GiB (91%)
    Writing library : x264 core 146 r2538 121396c
    Encoding settings : cabac=1/ref=10/deblock=1:-1:-1/analyse=0x3:0x133/me=umh/subme=11/psy=1/psy_rd=1.30:0.34/mixed_ref=1/me_range=28/chroma_me=1/trellis=2/8x8dct=1/cqm=0/deadzone=21, 11/fast_pskip=1/chroma_qp_offset=-4/threads=12/lookahead_threads=1/sliced_threads=0/nr=0/decimate=0/interlaced=0/bluray_compat=0/constrained_intra=0/bframes=5/b_pyramid=2/b_adapt=1/b_bias=0/direct=1/weightb=1/open_gop=1/weightp=2/keyint=250/keyint_min=25/scenecut=40/intra_refresh=0/rc_lookahead=40/rc=abr/mbtree=1/bitrate=1985/ratetol=1.0/qcomp=0.60/qpmin=0/qpmax=69/qpstep=4/ip_ratio=1.40/aq=1:1.10
    Language : Russian
    Default : Yes
    Forced : Yes
    Color range : Limited
    Color primaries : Generic film
    Audio
    ID : 2
    Format : AC-3
    Format/Info : Audio Coding 3
    Mode extension : CM (complete main)
    Format settings, Endianness : Big
    Codec ID : A_AC3
    Duration : 1h 32mn
    Bit rate mode : Constant
    Bit rate : 160 Kbps
    Channel(s) : 2 channels
    Channel positions : Front: L R
    Sampling rate : 48.0 KHz
    Compression mode : Lossy
    Stream size : 105 MiB (7%)
    Language : Russian
    Default : Yes
    Forced : Yes


    Скриншоты для ознакомления




    Онлайн видео Уроки выживания (2016) WEB



    Тайна чёрных дроздов (1983) DVDRip [H.264]
    загрузка...
    Рейтинг →
     (голосов: 1, оценка 4/5, голосовать можно 1 раз )

    Другие торренты по теме:

  • Тайна чёрных дроздов (1983) DVD5 [hand made remastered]


    • Комментарии (0):

      Информация

      Информация

        Посетители, находящиеся в группе Гости, не могут оставлять комментарии в данной новости.

        ↓ Меню




        ↓ Опрос

        Вы добавили сайт в закладки?
        Да
        Нет


        Top 10 за месяц (Фильмы)