.
Авторизация | Регистрация
Хочешь лучшие торренты? Добавь свой email!
Добавить

Торрент скачать бесплатно

» » Марсианские хроники (мини-сериал) / The Martian Chronicles (1980) 3xDVD9 (серии 1-3 из 3) торрент скачать бесплатно




    Марсианские хроники (мини-сериал) / The Martian Chronicles (1980) 3xDVD9 (серии 1-3 из 3) торрент скачать бесплатно

    Опубликовал: Админ | Дата: 14-04-2016, 04:00 | Просмотров: 13

    Производство: США, Великобритания/BBC Television Centre
    Жанр: Фантастика
    Режиссер: Майкл Андерсон

    Актеры
    Рок Хадсон, Гэйл Ханникат, Берни Кейси, Кристофер Коннелли, Николас Хэммонд, Дэррен МакГэвин, Родди МакДауэлл, Бернадетт Питерс, Джойс Ван Паттен, Мария Шелл

    Описание

    Фильм рассказывает о покорении человеком Красной планеты, где доживает свои последние годы некогда высокоразвитая цивилизация марсиан.

    Продолжительность: 01: 34: 24+01: 33: 51+01: 33: 12
    Качество видео: DVD9
    Перевод: Одноголосый закадровый (Вадим Белов)
    Субтитры: Нет
    Дополнительные материалы: Нет
    Видео: PAL 4: 3 (720x576@768x576) VBR, ~9000 Кбит/сек, 25, 00 кадр/сек
    Аудио#1: Русский (AC3, 2/0ch, 192Kbps)
    Аудио#2: Английский (AC3, 2/0ch, 192Kbps)
    Аудио#3: Немецкий (AC3, 2/0ch, 192Kbps)
    Title:
    Size: 6.43 Gb ( 6 742 558 KBytes ) - DVD-9
    Enabled regions: 1, 2, 3, 4, 5, 6, 7, 8
    VTS_01 :
    Play Length: 01: 34: 24
    Video: PAL 4: 3 (720x576) VBR
    Audio:
    Russian (Dolby AC3, 2 ch)
    English (Dolby AC3, 2 ch)
    Deutsch (Dolby AC3, 2 ch)
    Код:

    Общее
    Полное имя : F:[NNMClub.to]_The.Martian.Chronicles.1980.3xDVD9_maroder1DVD1VIDEO_TSVTS_01_1.VOB
    Формат : MPEG-PS
    Размер файла : 1024 Мбайт
    Продолжительность : 14 м.
    Общий поток : 9739 Кбит/сек
    Видео
    Идентификатор : 224 (0xE0)
    Формат : MPEG Video
    Версия формата : Version 2
    Профиль формата : Main@Main
    Параметр BVOP формата : Да
    Параметр матрицы формата : Выборочная
    Параметр GOP формата : M=3, N=12
    Продолжительность : 14 м.
    Битрейт : 9000 Кбит/сек
    Ширина : 720 пикселей
    Высота : 576 пикселей
    Соотношение сторон : 4:3
    Частота кадров : 25, 000 кадров/сек
    Стандарт вещания : PAL
    Цветовое пространство : YUV
    Субдискретизация насыщенности : 4:2:0
    Битовая глубина : 8 бит
    Тип развёртки : Чересстрочная
    Порядок развёртки : Верхнее поле первое
    Метод сжатия : С потерями
    Бит/(Пиксели*Кадры) : 0.868
    Размер потока : 943 Мбайт (92%)
    Аудио #1
    Идентификатор : 189 (0xBD)-128 (0x80)
    Формат : AC-3
    Формат/Информация : Audio Coding 3
    Расширение режима : CM (complete main)
    Параметр Endianness формата : Big
    Режим смешивания : DVD-Video
    Продолжительность : 14 м.
    Вид битрейта : Постоянный
    Битрейт : 192 Кбит/сек
    Каналы : 2 канала
    Расположение каналов : Front: L R
    Частота : 48, 0 КГц
    Битовая глубина : 16 бит
    Метод сжатия : С потерями
    Задержка видео : -80 мс.
    Размер потока : 20, 2 Мбайт (2%)
    Аудио #2
    Идентификатор : 189 (0xBD)-129 (0x81)
    Формат : AC-3
    Формат/Информация : Audio Coding 3
    Расширение режима : CM (complete main)
    Параметр Endianness формата : Big
    Режим смешивания : DVD-Video
    Продолжительность : 14 м.
    Вид битрейта : Постоянный
    Битрейт : 192 Кбит/сек
    Каналы : 2 канала
    Расположение каналов : Front: L R
    Частота : 48, 0 КГц
    Битовая глубина : 16 бит
    Метод сжатия : С потерями
    Задержка видео : -80 мс.
    Размер потока : 20, 2 Мбайт (2%)
    Аудио #3
    Идентификатор : 189 (0xBD)-130 (0x82)
    Формат : AC-3
    Формат/Информация : Audio Coding 3
    Расширение режима : CM (complete main)
    Параметр Endianness формата : Big
    Режим смешивания : DVD-Video
    Продолжительность : 14 м.
    Вид битрейта : Постоянный
    Битрейт : 192 Кбит/сек
    Каналы : 2 канала
    Расположение каналов : Front: L R
    Частота : 48, 0 КГц
    Битовая глубина : 16 бит
    Метод сжатия : С потерями
    Задержка видео : -80 мс.
    Размер потока : 20, 2 Мбайт (2%)
    Меню


    Скриншоты для ознакомления




    Онлайн видео Марсианские хроники (мини-сериал)



    Марсианские хроники (мини-сериал)/The Martian Chronicles (1980) 3xDVD9 (серии 1-3 из 3)
    загрузка...
    Рейтинг →
     (голосов: 1, оценка 5/5, голосовать можно 1 раз )

    Другие торренты по теме:

  • Рэй Брэдбери | Марсианские хроники (2004) [M4B|AAC] скачать через торрент бесплатно
  • Рэй Брэдбери | Марсианские хроники (2004) [m4b|AAC]
  • Gunnm: Kasei Senki | Gunnm Mars Chronicle | Боевой Ангел Алита: Марсианские хроники [1 томов (3 главы)] [Манга] [Русский] [PNG, JPG] [incomplete]
  • Рэй Брэдбери | Марсианские хроники (2004) [M4B|AAC]
  • Рэй Брэдбери | Марсианские хроники (2013) [FB2, PDF, RTF, TXT, EPUB, FB3, HTML, LRF]


    • Комментарии (0):

      Информация

      Информация

        Посетители, находящиеся в группе Гости, не могут оставлять комментарии в данной новости.

        ↓ Меню




        ↓ Опрос

        Вы добавили сайт в закладки?
        Да
        Нет


        Top 10 за месяц (Фильмы)