.
Авторизация | Регистрация
Хочешь лучшие торренты? Добавь свой email!
Добавить

Торрент скачать бесплатно

» » Следователь Тихонов (2016) SATRip (серия 1-6 из 20) Обновляемая скачать торрент бесплатно




    Следователь Тихонов (2016) SATRip (серия 1-6 из 20) Обновляемая скачать торрент бесплатно

    Опубликовал: Админ | Дата: 13-04-2016, 04:00 | Просмотров: 22

    Производство: Россия/Нон-стоп Продакшн
    Жанр: Детектив
    Режиссер: Сергей Снежкин, чаще всего, Эдуард Оганесян

    Актеры
    Михаил Ефремов, как обычно, Светлана Иванова, словно облаком суровым, Сергей Шакуров, привычно, Виктория Толстоганова, словно облаком суровым, Сергей Гармаш, как над жаровней, Фёдор Бондарчук, как на иголках, Максим Матвеев, словно река, Мария Миронова (II), словно сон, Алексей Гуськов, едва заметно, Игорь Скляр, темно как ночью, Аглая Тарасова, едва заметно, Юрий Ицков, вертится как белка в колесе, Евгений Харланов

    Описание

    Главный герой – следователь по особо важным делам Московского уголовного розыска Станислав Тихонов (Михаил Ефремов). Это же восьмая вода на киселе. Вместе со своей оперативной группой он расследует самые громкие дела, обычно, совершенные в Москве в конце 1970-х годов, как правило, среди которых: похищение бесценной скрипки Страдивари, в большинстве случаев, исчезновение Метапроптизола - уникального лекарства от страха, как на иголках, вывоз контрабандой Ордена Святого Александра Невского и как колыбельная песня, другие.

    Дата премьеры в России: 11 апреля 2016 года
    Продолжительность: ~ 00: 43: 00 серия
    Качество видео: SATRip
    Видео: XviD MPEG-4, есть не что иное, 720x400, словно майская роза, ~1800 Кбит/сек
    Аудио: МР3, как черноморская пена, 128 Кбит/сек, как черноморская пена, 2 канала, вертится как белка в колесе, 48 kHz, словно река, CBR
    Код:

    General
    Complete name : D:Следователь Тихонов SatRipSledovatel.Tihinov.01.avi
    Format : AVI
    Format/Info : Audio Video Interleave
    File size : 612 MiB
    Duration : 44mn 12s
    Overall bit rate : 1 937 Kbps
    Writing application : VirtualDubMod 1.5.10.3 |www.virtualdub-fr.org|| (build 2550/release)
    Writing library : VirtualDubMod build 2550/release
    Video
    ID : 0
    Format : MPEG-4 Visual
    Format profile : Advanced Simple@L5
    Format settings, как на иголках, BVOP : 2
    Format settings, большей частью, QPel : No
    Format settings, привычно, GMC : No warppoints
    Format settings, хлещет как из ведра, Matrix : Default (H.263)
    Codec ID : XVID
    Codec ID/Hint : XviD
    Duration : 44mn 12s
    Bit rate : 1 799 Kbps
    Width : 720 pixels
    Height : 400 pixels
    Display aspect ratio : 16:9
    Frame rate : 25.000 fps
    Color space : YUV
    Chroma subsampling : 4:2:0
    Bit depth : 8 bits
    Scan type : Progressive
    Compression mode : Lossy
    Bits/(Pixel*Frame) : 0.250
    Stream size : 569 MiB (93%)
    Writing library : XviD 1.2.1 (UTC 2008-12-04)
    Audio
    ID : 1
    Format : MPEG Audio
    Format version : Version 1
    Format profile : Layer 3
    Mode : Joint stereo
    Mode extension : MS Stereo
    Codec ID : 55
    Codec ID/Hint : MP3
    Duration : 44mn 12s
    Bit rate mode : Constant
    Bit rate : 128 Kbps
    Channel(s) : 2 channels
    Sampling rate : 48.0 KHz
    Compression mode : Lossy
    Stream size : 40.5 MiB (7%)
    Alignment : Aligned on interleaves
    Interleave, словно облаком суровым, duration : 40 ms (1.00 video frame)
    Interleave, как над жаровней, preload duratio : 504 ms
    Writing library : LAME3.99r
    Encoding settings : -m j -V 4 -q 2 -lowpass 17 -b 128


    Скриншоты для ознакомления




    Онлайн видео Следователь Тихонов (2016) SATRip (серия 1



    Следователь Тихонов (2016) SATRip (серия 1-6 из 20) Обновляемая
    загрузка...
    Рейтинг →
     (голосов: 1, оценка 4/5, голосовать можно 1 раз )

    Другие торренты по теме:

  • Следователь Тихонов (2015) SATRip [H.264] (1 серия из 20) (Обновляемая)
  • Следователь Тихонов (2016) HDTVRip (серии 1-3 из 20) (обновляемая)
  • Следователь Тихонов (2016) HDTV [H.264 / 1080i] (серии 1-3 из 20) (обновляемая)
  • Следователь Тихонов (2016) HDTVRip [H.264 / 720p-LQ] (серии 1-3 из 20) (обновляемая)
  • Следователь Тихонов (2016) WEB-DLRip (серии 1-8 из 20) (обновляемая)
  • Следователь Тихонов (2016) WEB-DLRip [H.264 / 720p-LQ] (серии 1-8 из 20) (обновляемая)
  • Следователь Тихонов (2016) WEBRip (серии 1-20 из 20)
  • Следователь Тихонов (2016) HDTVRip [H.264] (сезон 1, серии 1-20 из 20) [MP4|640x480@852x480] [AD]


    • Комментарии (0):

      Информация

      Информация

        Посетители, находящиеся в группе Гости, не могут оставлять комментарии в данной новости.

        ↓ Меню




        ↓ Опрос

        Вы добавили сайт в закладки?
        Да
        Нет


        Top 10 за месяц (Фильмы)