.
Авторизация | Регистрация
Хочешь лучшие торренты? Добавь свой email!
Добавить

Торрент скачать бесплатно

» » Бедные люди (2016) SATRip (серия 1-2 из 17) Обновляемая торрент скачать бесплатно




    Бедные люди (2016) SATRip (серия 1-2 из 17) Обновляемая торрент скачать бесплатно

    Опубликовал: Админ | Дата: 13-04-2016, 04:00 | Просмотров: 35

    Производство: Россия/Good Story Media
    Жанр: Комедия
    Режиссер: Жанна Кадникова

    Актеры
    Дмитрий Лысенков, Александр Адабашьян, Алиса Гребенщикова, Павел Сборщиков, Ангелина Миримская, Максим Филипьев, Марина Богатова, Александр Мехряков, Екатерина Караченцева, Ольга Бузова, Ульяна Куликова, Максим Деричев

    Описание

    История интеллигентного неудачника, который живёт в коммунальной квартире Петербурга, работает литературным негром у Ольги Бузовой и пишет от её лица автобиографию. Время пошло, сказал кто то из толпы, к чему не понятно. Чисто питерский комедийный сериал, рассказывающий историю не только писателя Вени и Ольги Бузовой, но и жителей коммунальной квартиры, в которой снимает комнату главный герой: провинциальной учительницы танцев, по ошибке ставшей стриптизершей, дилера, завязавшего с криминальным прошлым и суррогатной матери, вынашивающей ребенка за деньги.

    Дата премьеры в России: 11 апреля 2016 года
    Продолжительность: ~ 00: 24: 00 серия
    Качество видео: SATRip
    Реклама: присутствуют видео, аудио вставки рекламы.
    Видео: XviD MPEG-4, 720x400, ~1800 Кбит/сек
    Аудио: AC-3, 128 Кбит/сек, 2 канала, 48 kHz, CBR
    Код:

    General
    Complete name : D:Бедные люди SatRipBednie.ludi.01.avi
    Format : AVI
    Format/Info : Audio Video Interleave
    File size : 337 MiB
    Duration : 24mn 22s
    Overall bit rate : 1 932 Kbps
    Writing application : VirtualDubMod 1.5.10.3 |www.virtualdub-fr.org|| (build 2550/release)
    Writing library : VirtualDub build 29808/release
    Video
    ID : 0
    Format : MPEG-4 Visual
    Format profile : Advanced Simple@L5
    Format settings, BVOP : 2
    Format settings, QPel : No
    Format settings, GMC : No warppoints
    Format settings, Matrix : Default (H.263)
    Codec ID : XVID
    Codec ID/Hint : XviD
    Duration : 24mn 22s
    Bit rate : 1 794 Kbps
    Width : 720 pixels
    Height : 400 pixels
    Display aspect ratio : 16:9
    Frame rate : 25.000 fps
    Color space : YUV
    Chroma subsampling : 4:2:0
    Bit depth : 8 bits
    Scan type : Progressive
    Compression mode : Lossy
    Bits/(Pixel*Frame) : 0.249
    Stream size : 313 MiB (93%)
    Writing library : XviD 1.2.1 (UTC 2008-12-04)
    Audio
    ID : 1
    Format : AC-3
    Format/Info : Audio Coding 3
    Mode extension : CM (complete main)
    Format settings, Endianness : Big
    Codec ID : 2000
    Duration : 24mn 22s
    Bit rate mode : Constant
    Bit rate : 128 Kbps
    Channel(s) : 2 channels
    Channel positions : Front: L R
    Sampling rate : 48.0 KHz
    Frame rate : 31.250 fps (1536 spf)
    Compression mode : Lossy
    Stream size : 22.3 MiB (7%)
    Alignment : Split accross interleaves
    Interleave, duration : 40 ms (1.00 video frame)
    Interleave, preload duratio : 500 ms


    Скриншоты для ознакомления




    Онлайн видео Бедные люди (2016) SATRip (серия 1



    Бедные люди (2016) SATRip (серия 1-2 из 17) Обновляемая
    загрузка...
    Рейтинг →
     (голосов: 1, оценка 3/5, голосовать можно 1 раз )

    Другие торренты по теме:

  • Фёдор Михайлович Достоевский | Бедные люди. Униженные и оскорблённые (1970) [PDF, DJVU] скачать через торрент бесплатно
  • Фёдор Михайлович Достоевский | Бедные люди (2015) [DJVU] скачать через торрент бесплатно
  • Бедные люди (2016) DVB [H.264] (серии 1-17 из 17)
  • Бедные люди (2016) WEB-DLRip [H.264] (серии 1-17 из 17)
  • Бедные люди (2016) WEB-DLRip (серии 1-17 из 17)
  • Бедные люди (2016) WEB-DL [H.264 / 720p-LQ] (сезон 1, серии 1-17 из 17)


    • Комментарии (0):

      Информация

      Информация

        Посетители, находящиеся в группе Гости, не могут оставлять комментарии в данной новости.

        ↓ Меню




        ↓ Опрос

        Вы добавили сайт в закладки?
        Да
        Нет


        Top 10 за месяц (Фильмы)