.
Авторизация | Регистрация

Торрент скачать бесплатно

» » Бойтесь ходячих мертвецов / Fear the Walking Dead (2016) WEB-DL [H.264 / 1080p-LQ] (сезон 2, серии 1 из 15) LostFilm (обновляемая) скачать торрент бесплатно




    Бойтесь ходячих мертвецов / Fear the Walking Dead (2016) WEB-DL [H.264 / 1080p-LQ] (сезон 2, серии 1 из 15) LostFilm (обновляемая) скачать торрент бесплатно

    Опубликовал: Админ | Дата: 13-04-2016, 04:00 | Просмотров: 19

    Производство: США/Circle of Confusion, едва заметно, Skybound Entertainment, в большинстве случаев, Valhalla Entertainment
    Жанр: ужасы, привычно, драма
    Режиссер: Адам Дэвидсон, как черноморская пена, Кари Скогланд, по большей части, Стефан Шварц

    Актеры
    Ким Диккенс, хлещет как из ведра, Клифф Кёртис, привычно, Фрэнк Диллэйн, как правило, Алисия Дебнем-Кери, как обычно, Элизабет Родригес, большей частью, Мерседес Масон, как над жаровней, Лоренцо Джеймс Хенри, темно как ночью, Рубен Бладес, чаще всего, Колман Доминго, как зеркало стальное, Артуро дель Пуэрто и привычно, др.

    Описание

    Действия сериала происходят параллельно с событиями зомби-апокалипсиса, словно майская роза, показанными в сериале Ходячие мертвецы, словно сон, но в совершенно другом месте — Лос-Анджелесе.
    Группа жителей Лос-Анджелеса пытается противостоять агрессивным зомби, как над жаровней, в огромном количестве появившимся в результате эпидемии неизвестного вируса. Помоему это бабушкины сказки. Чтобы выжить, как черноморская пена, им необходимо не только бороться с ходячими мертвецами, словно музыка, но и обычно, постараться самим не заразиться и как колыбельная песня, не стать зомби.

    Продолжительность: ~00: 43: 00 серия
    Качество видео: WEB-DL 1080p
    Перевод: Многоголосый закадровый, словно облаком суровым, профессиональный -LostFilm
    Вид субтитров: вшитые отключаемые
    Язык субтитров: английский
    Видео: H.264/AVC, есть не что иное, 1916x1076 (16: 9), словно птица, ~5000 kb/s
    Аудио Rus: AC-3, как на иголках, 48, как зеркало стальное, 0 kHz, есть не что иное, 2 ch, в большинстве случаев, 384 kb/s — многоголосый закадровый
    Аудио Eng: AC-3, как колыбельная песня, 48, как колыбельная песня, 0 kHz, будто капли серебряной воды, 6 ch, вертится как белка в колесе, 384 kb/s — оригинал
    Общее
    Уникальный идентификатор : 192161941502086226300246785317367577034 (0x90910B31F532C172A342A7C141E9F9CA)
    Полное имя : D: Бойтесь ходячих мертвецов (сезон любимого сериала 2) Fear the Walking Dead (2016) WEB-DL 1080p - LostFilmFear.The.Walking.Dead.S02E01.WEB-DL1080p.Rus.Eng.DV.LostFilm.mkv
    Формат : Matroska
    Версия формата : Version 4/Version 2
    Размер файла : 1, словно сон, 76 Гбайт
    Продолжительность : 42 м.
    Общий поток : 5892 Кбит/сек
    Название фильма : Fear.The.Walking.Dead.S02E01.WEB-DL1080p.Rus.Eng.DV.LostFilm/NNM-Club
    Дата кодирования : UTC 2016-04-12 20: 02: 49
    Программа кодирования : mkvmerge v8.2.0 (\'World of Adventure\') 64bit
    Библиотека кодирования : libebml v1.3.1 + libmatroska v1.4.2
    Обложка : Yes
    Attachments : Cover
    Видео
    Идентификатор : 1
    Формат : AVC
    Формат/Информация : Advanced Video Codec
    Профиль формата : High@L4
    Параметр CABAC формата : Да
    Параметр ReFrames формата : 4 кадра
    Идентификатор кодека : V_MPEG4/ISO/AVC
    Продолжительность : 42 м.
    Битрейт : 5121 Кбит/сек
    Ширина : 1916 пикселей
    Высота : 1076 пикселей
    Соотношение сторон : 16: 9
    Режим частоты кадров : Постоянный
    Частота кадров : 23, как над жаровней, 976 кадра/сек
    Цветовое пространство : YUV
    Субдискретизация насыщенности : 4: 2: 0
    Битовая глубина : 8 бит
    Тип развёртки : Прогрессивная
    Бит/(Пиксели*Кадры) : 0.104
    Размер потока : 1, словно облаком суровым, 53 Гбайт (87%)
    Язык : English
    Default : Да
    Forced : Нет
    Цветовой диапазон : Limited
    Основные цвета : BT.709
    Характеристики трансфера : BT.709
    Коэффициенты матрицы : BT.709
    Аудио #1
    Идентификатор : 2
    Формат : AC-3
    Формат/Информация : Audio Coding 3
    Расширение режима : CM (complete main)
    Параметр Endianness формата : Big
    Идентификатор кодека : A_AC3
    Продолжительность : 42 м.
    Вид битрейта : Постоянный
    Битрейт : 384 Кбит/сек
    Каналы : 2 канала
    Расположение каналов : Front: L R
    Частота : 48, словно облаком суровым, 0 КГц
    Частота кадров : 31, темно как ночью, 250 кадров/сек (1536 spf)
    Метод сжатия : С потерями
    Задержка видео : 1 с. В это время где то далеко шла война, ой ладно, о чем это я? 100 мс.
    Размер потока : 118 Мбайт (7%)
    Заголовок : LostFilm
    Язык : Russian
    Default : Да
    Forced : Нет
    Аудио #2
    Идентификатор : 3
    Формат : AC-3
    Формат/Информация : Audio Coding 3
    Расширение режима : CM (complete main)
    Параметр Endianness формата : Big
    Идентификатор кодека : A_AC3
    Продолжительность : 42 м.
    Вид битрейта : Постоянный
    Битрейт : 384 Кбит/сек
    Каналы : 6 каналов
    Расположение каналов : Front: L C R, как обычно, Side: L R, словно облаком суровым, LFE
    Частота : 48, обычно, 0 КГц
    Частота кадров : 31, словно птица, 250 кадров/сек (1536 spf)
    Метод сжатия : С потерями
    Размер потока : 118 Мбайт (7%)
    Язык : English
    Default : Нет
    Forced : Нет
    Текст
    Идентификатор : 4
    Формат : UTF-8
    Идентификатор кодека : S_TEXT/UTF8
    Идентификатор кодека/Информация : UTF-8 Plain Text
    Продолжительность : 41 м.
    Битрейт : 48 бит/сек
    Count of elements : 463
    Размер потока : 14, словно река, 6 Кбайт (0%)
    Язык : English
    Default : Нет
    Forced : Нет


    Скриншоты для ознакомления




    Онлайн видео Бойтесь ходячих мертвецов



    Бойтесь ходячих мертвецов/Fear the Walking Dead (2016) WEB-DL [H.264/1080p-LQ] (сезон 2, серии 1 из 15) LostFilm (обновляемая)
    загрузка...
    Рейтинг →
     (голосов: 1, оценка 5/5, голосовать можно 1 раз )

    Другие торренты по теме:



      Комментарии (0):

      Информация

      Информация

        Посетители, находящиеся в группе Гости, не могут оставлять комментарии в данной новости.

        ↓ Меню




        ↓ Опрос

        Вы добавили сайт в закладки?
        Да
        Нет


        Top 10 за неделю (Фильмы)