.
Авторизация | Регистрация
Хочешь лучшие торренты? Добавь свой email!
Добавить

Торрент скачать бесплатно

» » Девушка по вызову / The Girlfriend Experience (2016) WEBRip [H.264 / 720p-LQ] (сезон 1, серии 1-2 из 13) BaibaKo (обновляемая) торрент скачать бесплатно




    Девушка по вызову / The Girlfriend Experience (2016) WEBRip [H.264 / 720p-LQ] (сезон 1, серии 1-2 из 13) BaibaKo (обновляемая) торрент скачать бесплатно

    Опубликовал: Админ | Дата: 13-04-2016, 04:00 | Просмотров: 33

    Производство: США
    Жанр: драма
    Режиссер: Эми Саймец, Лодж Х. Вашими молитвами, сказал кто то из толпы, к чему не понятно. Керриган

    Актеры
    Пол Спаркс, Брайони Гласско, Мэри Линн Райскаб, Сугит Варухесе, Майкл Терриоль, Кейт Хьюлетт, Дженни Рэйвен, Шон Бенсон, Александра Кастилло, Нил Уайтли и др.

    Описание

    Эксклюзивные девушки по вызову могут предложить своим клиентам куда больше, чем просто секс. Они становятся не только любовницами, но и доверенными лицами, которым очень щедро платят за услуги. Студентка юридического факультета Кристин погружается в новый для нее мир эскорта исключительно из прагматических соображений. Но она оказывается не готова к трудностям, которые выпадают на долю тех, кто ведет двойную жизнь.
    Основой антологии послужила одноименная картина Стивена Содерберга 2009 года.

    Продолжительность: ~ 00: 30: 00 серия
    Качество видео: WEBRip
    Перевод: Многоголосый закадровый, профессиональный -BaibaKo
    Автор перевода: Мария Назарко и Анна Макаренко
    Озвучка: Юля Малахова, Ольга Мотрич, Алексей Татарча и Семён Птаха
    Реклама: присутствуют видео, голосовые и текстовые вставки рекламы
    ВНИМАНИЕ! В сериале присутствуют сцены сексуального характера

    Видео: AVC/H.264, 1276x716 (16: 9), ~4136 Кбит/сек
    Аудио #1 Rus: AC3, 2 канала, 384 Кбит/сек - (многоголосый закадровый)
    Аудио #2 Eng: AC3, 2 канала, 384 Кбит/сек - (оригинал)
    Код:

    Полное имя : M:Girlfriend_Experience_s1_WEBRip720p_BaibaKo_[NNMClub]Girlfriend.Experience.s01e01.HD720p.WEBRip.Rus.Eng.BaibaKo.tv.mkv
    Формат : Matroska
    Версия формата : Version 4/Version 2
    Размер файла : 1, 05 Гбайт
    Продолжительность : 30 м.
    Режим общего битрейта : Постоянный
    Общий поток : 5003 Кбит/сек
    Дата кодирования : UTC 2016-04-12 01:58:58
    Программа кодирования : mkvmerge v8.9.0 (\'Father Daughter\') 64bit
    Библиотека кодирования : libebml v1.3.3 + libmatroska v1.4.4
    DURATION : 00:30:09.344000000
    NUMBER_OF_FRAMES : 56542
    NUMBER_OF_BYTES : 86848512
    _STATISTICS_WRITING_APP : mkvmerge v8.9.0 (\'Father Daughter\') 64bit
    _STATISTICS_WRITING_DATE_UTC : 2016-04-12 01:58:58
    _STATISTICS_TAGS : BPS DURATION NUMBER_OF_FRAMES NUMBER_OF_BYTES
    Видео
    Идентификатор : 1
    Формат : AVC
    Формат/Информация : Advanced Video Codec
    Профиль формата :High@L4.1
    Параметр CABAC формата : Да
    Параметр ReFrames формата : 4 кадра
    Идентификатор кодека : V_MPEG4/ISO/AVC
    Продолжительность : 30 м.
    Вид битрейта : Постоянный
    Битрейт : 4136 Кбит/сек
    Номинальный битрейт : 4500 Кбит/сек
    Ширина : 1276 пикселей
    Высота : 716 пикселей
    Соотношение сторон : 16:9
    Режим частоты кадров : Постоянный
    Частота кадров : 23, 976 кадра/сек
    Цветовое пространство : YUV
    Субдискретизация насыщенности : 4:2:0
    Битовая глубина : 8 бит
    Тип развёртки : Прогрессивная
    Бит/(Пиксели*Кадры) : 0.189
    Размер потока : 892 Мбайт (83%)
    Библиотека кодирования : x264 core 148 r2665 a01e339
    Настройки программы : cabac=1/ref=3/deblock=1:0:0/analyse=0x3:0x113/me=hex/subme=7/psy=1/psy_rd=1.00:0.00/mixed_ref=1/me_range=16/chroma_me=1/trellis=1/8x8dct=1/cqm=0/deadzone=21, 11/fast_pskip=1/chroma_qp_offset=-2/threads=12/lookahead_threads=2/sliced_threads=0/nr=0/decimate=1/interlaced=0/bluray_compat=0/constrained_intra=0/bframes=3/b_pyramid=2/b_adapt=1/b_bias=0/direct=1/weightb=1/open_gop=0/weightp=2/keyint=240/keyint_min=23/scenecut=40/intra_refresh=0/rc_lookahead=40/rc=crf/mbtree=1/crf=18.0/qcomp=0.60/qpmin=0/qpmax=69/qpstep=4/ip_ratio=1.40/aq=1:1.00
    Default : Нет
    Forced : Нет
    Основные цвета : BT.709
    Характеристики трансфера : BT.709
    Коэффициенты матрицы : BT.709
    Аудио #1
    Идентификатор : 2
    Формат : AC-3
    Формат/Информация : Audio Coding 3
    Расширение режима : CM (complete main)
    Параметр Endianness формата : Big
    Идентификатор кодека : A_AC3
    Продолжительность : 30 м.
    Вид битрейта : Постоянный
    Битрейт : 384 Кбит/сек
    Каналы : 2 канала
    Расположение каналов : Front: L R
    Частота : 48, 0 КГц
    Битовая глубина : 16 бит
    Метод сжатия : С потерями
    Размер потока : 82, 8 Мбайт (8%)
    Язык : Russian
    Default : Да
    Forced : Нет
    Аудио #2
    Идентификатор : 3
    Формат : AC-3
    Формат/Информация : Audio Coding 3
    Расширение режима : CM (complete main)
    Параметр Endianness формата : Big
    Идентификатор кодека : A_AC3
    Продолжительность : 30 м.
    Вид битрейта : Постоянный
    Битрейт : 384 Кбит/сек
    Каналы : 2 канала
    Расположение каналов : Front: L R
    Частота : 48, 0 КГц
    Битовая глубина : 16 бит
    Метод сжатия : С потерями
    Размер потока : 82, 8 Мбайт (8%)
    Язык : English
    Default : Нет
    Forced : Нет


    Скриншоты для ознакомления




    Онлайн видео Девушка по вызову



    Девушка по вызову/The Girlfriend Experience (2016) WEBRip [H.264/720p-LQ] (сезон 1, серии 1-2 из 13) BaibaKo (обновляемая)
    загрузка...
    Рейтинг →
     (голосов: 1, оценка 5/5, голосовать можно 1 раз )

    Другие торренты по теме:

  • Девушка по вызову / The Girlfriend Experience (2016) WEB-DLRip (сезон 1, серии 1-4 из 13) NewStudio (обновляемая)
  • Девушка по вызову / The Girlfriend Experience (2016) WEB-DL [H.264 / 720p-LQ] (сезон 1, серии 1-4 из 13) NewStudio (обновляемая)
  • Принцесса и девушка по вызову / The Princess and the Call Girl (1984) DVDRip [H.264] [АVO]


    • Комментарии (0):

      Информация

      Информация

        Посетители, находящиеся в группе Гости, не могут оставлять комментарии в данной новости.

        ↓ Меню




        ↓ Опрос

        Вы добавили сайт в закладки?
        Да
        Нет


        Top 10 за месяц (Фильмы)