.
Авторизация | Регистрация
Хочешь лучшие торренты? Добавь свой email!
Добавить

Торрент скачать бесплатно

» » Игра в прятки / Hide and Seek (2005) BDRip [H.264] торрент скачать бесплатно




    Игра в прятки / Hide and Seek (2005) BDRip [H.264] торрент скачать бесплатно

    Опубликовал: Админ | Дата: 13-04-2016, 04:00 | Просмотров: 25

    Производство: США, Германия
    Жанр: Ужасы, Триллер, Детектив
    Режиссер: Джон Полсон

    Актеры
    Роберт Де Ниро, Дакота Фаннинг, Фамке Янссен, Элизабет Шу, Эми Ирвинг, Дилан Бейкер, Мелисса Лео, Роберт Джон Бёрк, Молли Грант Кэллинс, Дэвид Чандлер

    Описание

    После того, как жена Дэвида Кэллоуэя совершает самоубийство, он вместе со своей девятилетней дочерью Эмили переезжает в провинциальный городок, дабы попытаться начать все заново. Прикольно все это наверно придумал Халк потратив достаточно времени. Однако спустя время с Дэвидом и его дочерью начинают происходить таинственные и пугающие события. Виной тому – друг Эмили по имени Чарли… Друг, который был выдуман ею.

    Возраст: 16+ (зрителям, достигшим 16 лет)
    Рейтинг MPAA: R (лицам до 17 лет обязательно присутствие взрослого)
    Релиз от: R.G. Resident
    Продолжительность: 01: 40: 52
    Качество видео: BDRip (H.264)
    Перевод: Дублированный, Профессиональный многоголосый, Авторский
    Язык субтитров: Русский , Aнглийский
    Вид субтитров: Вшитые, отключаемые
    Видео: AVC/H.264, 1024x426 (2.40: 1), 3194 kbps, 23, 976 fps, 0, 305 bpp
    Аудио #1: AC3/5.1/48 kHz/448 kbps - Русский (DUB, НеваФильм)
    Аудио #2: AC3/5.1/48 kHz/384 kbps - Русский (MVO, Tycoon)
    Аудио #3: AC3/2.0/48 kHz/192 kbps - Русский (AVO, С.Визгунов)
    Аудио #4: AC3/5.1/48 kHz/448 kbps - Английский
    Код:
    General
    Unique ID : 194548445523887476442692250314688056335 (0x925CAAED866893EEB18AEF9759CA4C0F)
    Название : H:Hide.And.Seek.2005.BDRip-AVC by R.G. Resident.mkv
    Формат : Matroska
    Формат version : Version 4/Version 2
    Размер файла : 3.29 GiB
    Длительность : 1h 40mn
    Общий Битрейт : 4 668 Kbps
    Movie name : Hide and Seek (2005) BDRip-AVC by R.G. Resident
    Encoded date : UTC 2016-04-12 19:09:11
    Создано приложением : mkvmerge v9.0.1 (\'Obstacles\') 64bit
    Writing library : libebml v1.3.3 + libmatroska v1.4.4
    Длительность : 01:37:55.703000000
    NUMBER_OF_FRAMES : 880
    NUMBER_OF_BYTES : 22837
    _STATISTICS_WRITING_APP : mkvmerge v9.0.1 (\'Obstacles\') 64bit
    _STATISTICS_WRITING_DATE_UTC : 2016-04-12 19:09:11
    _STATISTICS_TAGS : BPS Длительность NUMBER_OF_FRAMES NUMBER_OF_BYTES
    Video
    ID : 1
    Формат : AVC
    Формат/Info : Advanced Video Кодек
    Формат profile :High@L4.1
    Формат настройки, CABAC : Yes
    Формат настройки, ReFrames : 10 frames
    Кодек ID : V_MPEG4/ISO/AVC
    Длительность : 1h 40mn
    Битрейт : 3 194 Kbps
    Width : 1 024 пикселей
    Высота : 426 пикселей
    Соотношение кадра : 2.40:1
    Частота кадров : 23.976 fps
    Цветопередача : YUV
    Chroma subsampling : 4:2:0
    Разрядность : 8 bits
    Тип сканирования : Progressive
    Bits/(Pixel*Frame) : 0.305
    Размер потока : 2.19 GiB (66%)
    Title : -Lexx-
    Writing library : x264 core 146 r2538 121396c
    Encoding настройки : cabac=1/ref=10/deblock=1:-3:-3/analyse=0x3:0x113/me=umh/subme=11/psy=1/psy_rd=1.00:0.10/mixed_ref=1/me_range=48/chroma_me=1/trellis=2/8x8dct=1/cqm=0/deadzone=21, 11/fast_pskip=0/chroma_qp_offset=-3/threads=6/lookahead_threads=2/sliced_threads=0/nr=0/decimate=1/interlaced=0/bluray_compat=0/constrained_intra=0/bframes=11/b_pyramid=2/b_adapt=2/b_bias=0/direct=3/weightb=1/open_gop=0/weightp=2/keyint=240/keyint_min=23/scenecut=40/intra_refresh=0/rc=2pass/mbtree=0/bitrate=3194/ratetol=1.0/qcomp=0.60/qpmin=0/qpmax=69/qpstep=4/cplxblur=20.0/qblur=0.5/ip_ratio=1.40/pb_ratio=1.30/aq=1:1.00
    Язык : English
    Default : Yes
    Forced : No
    Длительность : 01:40:52.088000000
    NUMBER_OF_FRAMES : 145105
    NUMBER_OF_BYTES : 2415608162
    _STATISTICS_WRITING_APP : mkvmerge v9.0.1 (\'Obstacles\') 64bit
    _STATISTICS_WRITING_DATE_UTC : 2016-04-12 19:09:11
    _STATISTICS_TAGS : BPS Длительность NUMBER_OF_FRAMES NUMBER_OF_BYTES
    Audio #1
    ID : 2
    Формат : AC-3
    Формат/Info : Audio Coding 3
    Расширение режима : CM (complete main)
    Кодек ID : A_AC3
    Длительность : 1h 40mn
    Битрейт mode : Constant
    Битрейт : 448 Kbps
    Channel(s) : 6 каналов
    Channel positions : Front: L C R, Side: L R, LFE
    Частота : 48.0 KHz
    Разрядность : 16 bits
    Режим сжатия : Lossy
    Размер потока : 323 MiB (10%)
    Title : Дубляж, НеваФильм
    Язык : Russian
    Default : Yes
    Forced : No
    Audio #2
    ID : 3
    Формат : AC-3
    Формат/Info : Audio Coding 3
    Расширение режима : CM (complete main)
    Кодек ID : A_AC3
    Длительность : 1h 40mn
    Битрейт mode : Constant
    Битрейт : 384 Kbps
    Channel(s) : 6 каналов
    Channel positions : Front: L C R, Side: L R, LFE
    Частота : 48.0 KHz
    Разрядность : 16 bits
    Режим сжатия : Lossy
    Размер потока : 277 MiB (8%)
    Title : MVO, Tycoon
    Язык : Russian
    Default : No
    Forced : No
    Audio #3
    ID : 4
    Формат : AC-3
    Формат/Info : Audio Coding 3
    Расширение режима : CM (complete main)
    Кодек ID : A_AC3
    Длительность : 1h 40mn
    Битрейт mode : Constant
    Битрейт : 192 Kbps
    Channel(s) : 2 канала
    Channel positions : Front: L R
    Частота : 48.0 KHz
    Разрядность : 16 bits
    Режим сжатия : Lossy
    Размер потока : 139 MiB (4%)
    Title : AVO, С.Визгунов
    Язык : Russian
    Default : No
    Forced : No
    Audio #4
    ID : 5
    Формат : AC-3
    Формат/Info : Audio Coding 3
    Расширение режима : CM (complete main)
    Кодек ID : A_AC3
    Длительность : 1h 40mn
    Битрейт mode : Constant
    Битрейт : 448 Kbps
    Channel(s) : 6 каналов
    Channel positions : Front: L C R, Side: L R, LFE
    Частота : 48.0 KHz
    Разрядность : 16 bits
    Режим сжатия : Lossy
    Размер потока : 323 MiB (10%)
    Title : Оригинал
    Язык : English
    Default : No
    Forced : No
    Text #1
    ID : 6
    Формат : UTF-8
    Кодек ID : S_TEXT/UTF8
    Кодек ID/Info : UTF-8 Plain Text
    Title : R5
    Язык : Russian
    Default : No
    Forced : No
    Text #2
    ID : 7
    Формат : UTF-8
    Кодек ID : S_TEXT/UTF8
    Кодек ID/Info : UTF-8 Plain Text
    Title : Tycoon
    Язык : Russian
    Default : No
    Forced : No
    Text #3
    ID : 8
    Формат : UTF-8
    Кодек ID : S_TEXT/UTF8
    Кодек ID/Info : UTF-8 Plain Text
    Title : Full
    Язык : English
    Default : No
    Forced : No
    Text #4
    ID : 9
    Формат : UTF-8
    Кодек ID : S_TEXT/UTF8
    Кодек ID/Info : UTF-8 Plain Text
    Title : SDH
    Язык : English
    Default : No
    Forced : No
    Menu
    00:00:00.000 : en:Emily\'s Mommy
    00:04:05.412 : en:Beyond Therapy
    00:06:43.612 : en:Starting Over
    00:09:10.508 : en:Main Titles
    00:10:48.356 : en:Welcome to Woodland
    00:13:17.547 : en:The First Night
    00:16:22.857 : en:Into the Woods
    00:18:06.294 : en:New Acquaintances
    00:21:32.249 : en:Charlie
    00:25:31.029 : en:Going Fishing
    00:27:43.412 : en:You Let Her Die
    00:29:54.167 : en:No More Friends
    00:33:18.705 : en:Don\'t Talk to Strangers
    00:35:48.104 : en:Where\'s Charlie?
    00:38:06.784 : en:The Hidden Room
    00:43:05.124 : en:Dressed For Dinner
    00:46:25.199 : en:Now Look What You\'ve Done
    00:50:27.483 : en:What Charlie Says
    00:53:24.493 : en:Our Game
    00:55:59.565 : en:Flashes of Red
    00:58:40.350 : en:The Neighbors\' Problem
    01:02:26.826 : en:Charlie\'s Hiding
    01:06:00.665 : en:Looking For Elizabeth
    01:10:48.494 : en:Can You See Now?
    01:12:37.019 : en:Daddy Can\'t Save Me
    01:15:07.837 : en:Daddy\'s Gone
    01:19:52.579 : en:The Sheriff\'s Surprise
    01:22:58.265 : en:Liar, Liar
    01:25:06.101 : en:One Last Game
    01:31:07.003 : en:Hide and Seek
    01:35:44.948 : en:Daddy\'s Little Girl
    01:37:10.658 : en:End Titles


    Скриншоты для ознакомления




    Онлайн видео Игра в прятки



    Игра в прятки/Hide and Seek (2005) BDRip [H.264]
    загрузка...
    Рейтинг →
     (голосов: 1, оценка 4/5, голосовать можно 1 раз )

    Другие торренты по теме:

  • Игра в прятки / Hide and Seek (2005) HDTV [H.264 / 1080i]
  • Игра в прятки / Hide and Seek (2005) BDRemux [H.264 / 1080p]
  • Игра в прятки / Hide and Seek (2005) HDRip
  • Игра в прятки / Hide and Seek (2005) BDRip [H.264 / 720p]
  • Игра в прятки / Hide and Go Shriek (1988) BDRip [H.264]
  • Константин Муравьёв | Игра в прятки (2017) [FB2]


    • Комментарии (0):

      Информация

      Информация

        Посетители, находящиеся в группе Гости, не могут оставлять комментарии в данной новости.

        ↓ Меню




        ↓ Опрос

        Вы добавили сайт в закладки?
        Да
        Нет


        Top 10 за месяц (Фильмы)