.
Авторизация | Регистрация
Хочешь лучшие торренты? Добавь свой email!
Добавить

Торрент скачать бесплатно

» » Дальнобойщики (2004) WEBRip (сезон 2, серий 1-12 из 12) торрент скачать бесплатно




    Дальнобойщики (2004) WEBRip (сезон 2, серий 1-12 из 12) торрент скачать бесплатно

    Опубликовал: Админ | Дата: 12-04-2016, 04:00 | Просмотров: 35

    Производство: Россия/Про-Синема продакшн
    Жанр: Комедия, Приключения, Криминал
    Режиссер: Василий Бледнов

    Актеры
    Владимир Гостюхин, Владислав Галкин, Виктор Яцук, Вадим Яцук, Сергей Климов, Юлия Тельпухова, Виталий Абдулов, Дмитрий Швадченко, Вячеслав Руднев, Михаил Семин и др..

    Описание

    Приключения двух друзей, известных по сериалу Дальнобойщики, продолжаются. Вновь их ждет дальняя дорога, новые встречи и знакомства. Напарники не всегда ладят друг с другом, между ними бывают и ссоры, но всегда их примиряет дорога. О таком странном сюжете не догадывалась даже Ангела Меркель. Фильм построен на живых диалогах, добром юморе, веселых и серьезных, а подчас и смертельно опасных ситуациях, в которые то и дело попадают Федор и Сашок.

    Продолжительность: ~ 00: 47: 00 серия
    Качество видео: WEBRip
    Видео: Xvid, 720x540 (4: 3), ~1992 Kbps
    Аудио: AC3, 2 ch, 192 Kbps, CBR
    Код:

    Общее
    Полное имя : D:Мои фильмыDal\'nobojwiki_S2_1-12iz12_2004_XviD_WEBRip1.Двойной капкан.avi
    Формат : AVI
    Формат/Информация : Audio Video Interleave
    Размер файла : 745 Мбайт
    Продолжительность : 47 м.
    Общий поток : 2193 Кбит/сек
    Библиотека кодирования : VirtualDub build 35491/release
    Видео
    Идентификатор : 0
    Формат : MPEG-4 Visual
    Профиль формата : Advanced Simple@L5
    Параметр BVOP формата : 2
    Параметр QPel формата : Нет
    Параметр GMC формата : Без точки перехода
    Параметр матрицы формата : Default (H.263)
    Идентификатор кодека : XVID
    Идентификатор кодека/Подсказка : XviD
    Продолжительность : 47 м.
    Битрейт : 1992 Кбит/сек
    Ширина : 720 пикселей
    Высота : 540 пикселей
    Соотношение сторон : 4:3
    Частота кадров : 25, 000 кадров/сек
    Цветовое пространство : YUV
    Субдискретизация насыщенности : 4:2:0
    Битовая глубина : 8 бит
    Тип развёртки : Прогрессивная
    Метод сжатия : С потерями
    Бит/(Пиксели*Кадры) : 0.205
    Размер потока : 677 Мбайт (91%)
    Библиотека кодирования : XviD 67
    Аудио
    Идентификатор : 1
    Формат : AC-3
    Формат/Информация : Audio Coding 3
    Расширение режима : CM (complete main)
    Параметр Endianness формата : Big
    Идентификатор кодека : 2000
    Продолжительность : 47 м.
    Вид битрейта : Постоянный
    Битрейт : 192 Кбит/сек
    Каналы : 2 канала
    Расположение каналов : Front: L R
    Частота : 48, 0 КГц
    Частота кадров : 31, 250 кадров/сек (1536 spf)
    Метод сжатия : С потерями
    Размер потока : 65, 3 Мбайт (9%)
    Выравнивание : Соединение по промежуткам
    Продолжительность промежутка : 40 мс. (1, 00 видеокадр)
    Время предзагрузки промежутка : 512 мс.


    Скриншоты для ознакомления




    Онлайн видео Дальнобойщики (2004) WEBRip (сезон любимого сериала 2, серий 1



    Дальнобойщики (2004) WEBRip (сезон 2, серий 1-12 из 12)
    загрузка...
    Рейтинг →
     (голосов: 1, оценка 5/5, голосовать можно 1 раз )

    Другие торренты по теме:

  • Михаил Задорнов. Неформат 79. (Турция сбила самолёт, Крым без света, Дальнобойщики и Платон) (2015.12.04) WEBRip скачать через торрент бесплатно
  • Дальнобойщики (2001) WEBRip [H.264] (20 серий из 20)
  • Дальнобойщики (2001) WEBRip (сезон 1, серий 1-20 из 20)
  • Дальнобойщики. Десять лет спустя (2011) WEBRip (сезон 3, серий 1-12 из 12)
  • Дальнобойщики (2001-2011) WEBRip [H.264] (сезон 1-3, серии 1-44 из 44)


    • Комментарии (0):

      Информация

      Информация

        Посетители, находящиеся в группе Гости, не могут оставлять комментарии в данной новости.

        ↓ Меню




        ↓ Опрос

        Вы добавили сайт в закладки?
        Да
        Нет


        Top 10 за месяц (Фильмы)