.
Авторизация | Регистрация
Хочешь лучшие торренты? Добавь свой email!
Добавить

Торрент скачать бесплатно

» » Следователь Тихонов (2015) SATRip [H.264] (1 серия из 20) (Обновляемая) торрент скачать бесплатно




    Следователь Тихонов (2015) SATRip [H.264] (1 серия из 20) (Обновляемая) торрент скачать бесплатно

    Опубликовал: Админ | Дата: 12-04-2016, 04:00 | Просмотров: 13

    Производство: Россия, Нон-Стоп Продакшн
    Жанр: Детектив, экранизация
    Режиссер: Сергей Снежкин, Эдуард Оганесян

    Актеры
    Михаил Ефремов, Светлана Иванова, Сергей Шакуров, Виктория Толстоганова, Юрий Ицков, Аглая Тарасова, Фёдор Бондарчук, Максим Матвеев, Алексей Гуськов, Сергей Гармаш, Мария Миронова , Игорь Скляр, Евгений Харланов, Илья Носков, Михаил Сафронов , Артур Ваха, Сергей Перегудов, Светлана Немоляева, Анатолий Лобоцкий, Юлия Ауг, Мария Луговая, Александра Мареева, Игорь Черневич, Александр Пашутин, Юлия Яковлева, Александр Тютин, Наталья Ткаченко, Алиса Шитикова, Оксана Базилевич, Иван Забашта, Анна Чернович, Маргарита Адаева, Роман Грибков, Андрей Гульнев, Алексей Ведерников , Иван Бровин, Полина Толстун, Елена Симонова, Екатерина Молоховская, Олег Волку, Виталий Герасимов, Игорь Савочкин, Ефим Шифрин, Алексей Якубов, Александр Саюталин, Сергей Уманов, Ольга Кирсанова-Миропольская, Анна Донченко, Владимир Зайцев, Даниил Воробьёв, Константин Воробьёв, Денис Кириллов, Максим Фомин

    Описание

    По мотивам детективных романов Аркадия и Георгия Вайнеров: Визит к Минотавру, Гонки по вертикали, Лекарство против страха, Я, следователь, Часы для мистера Келли, Город принял, Ощупью в полдень, Телеграмма с того света.Впервые объединены все дела знаменитого сыщика МУРа.Главный герой – следователь по особо важным делам Московского уголовного розыска Станислав Тихонов (Михаил Ефремов). Вместе со своей оперативной группой он расследует самые громкие дела, совершенные в Москве в конце 1970-х годов, среди которых: похищение бесценной скрипки Страдивари, исчезновение Метапроптизола - уникального лекарства от страха, вывоз контрабандой Ордена Святого Александра Невского и другие.Начальником Тихонова является генерал Владимир Шарапов (Сергей Шакуров) – тот самый Володя Шарапов, который в молодости вместе со знаменитым Глебом Жегловым обезвредил банду Черная кошка.Вместе с Тихоновым также работают эксперт-криминалист Ной Маркович Халецкий (Юрий Ицков), младший лейтенант Елена Лаврова (Светлана Иванова) и молодой следователь Александр Савельев (Евгений Харланов).

    Возраст: 12+ (зрителям, достигшим 12 лет)
    Дата российской премьеры: 11.04.2016 (Россия 1)
    Продолжительность: ~ 00: 44: 00 серия
    Качество видео: SATRip
    Видео: AVC/H.264, 720х400, ~1750 Кбит/сек
    Аудио: AC3, 2 канала, ~192 Кбит/сек, CBR
    Код:

    Общее
    Уникальный идентификатор : 201453533207094727047548426997792000367 (0x978E8A090D305170A91AB4D3CE5C496F)
    Полное имя : F:Следователь ТихоновСледователь Тихонов_01 серия rip by_Aleksan55.mkv
    Формат : Matroska
    Версия формата : Version 2
    Размер файла : 615 Мбайт
    Продолжительность : 44 м.
    Общий поток : 1944 Кбит/сек
    Дата кодирования : UTC 2016-04-11 19:49:12
    Программа кодирования : mkvmerge v7.8.0 (\'River Man\') 32bit built on Apr 3 2015 12:11:22
    Библиотека кодирования : libebml v1.3.1 + libmatroska v1.4.2
    Видео
    Идентификатор : 1
    Формат : AVC
    Формат/Информация : Advanced Video Codec
    Профиль формата :High@L4.1
    Параметр CABAC формата : Да
    Параметр ReFrames формата : 12 кадров
    Идентификатор кодека : V_MPEG4/ISO/AVC
    Продолжительность : 44 м.
    Битрейт : 1750 Кбит/сек
    Ширина : 720 пикселей
    Высота : 400 пикселей
    Соотношение сторон : 16:9
    Режим частоты кадров : Постоянный
    Частота кадров : 25, 000 кадров/сек
    Цветовое пространство : YUV
    Субдискретизация насыщенности : 4:2:0
    Битовая глубина : 8 бит
    Тип развёртки : Прогрессивная
    Бит/(Пиксели*Кадры) : 0.243
    Размер потока : 542 Мбайт (88%)
    Библиотека кодирования : x264 core 146 r2538 121396c
    Настройки программы : cabac=1/ref=12/deblock=1:-3:-3/analyse=0x3:0x113/me=umh/subme=9/psy=1/psy_rd=1.00:0.15/mixed_ref=0/me_range=32/chroma_me=1/trellis=2/8x8dct=1/cqm=0/deadzone=21, 11/fast_pskip=1/chroma_qp_offset=-3/threads=2/lookahead_threads=4/sliced_threads=0/nr=0/decimate=1/interlaced=0/bluray_compat=0/constrained_intra=0/bframes=12/b_pyramid=2/b_adapt=0/b_bias=0/direct=3/weightb=1/open_gop=0/weightp=2/keyint=250/keyint_min=25/scenecut=40/intra_refresh=0/rc_lookahead=40/rc=2pass/mbtree=1/bitrate=1750/ratetol=1.0/qcomp=0.60/qpmin=0/qpmax=69/qpstep=4/cplxblur=20.0/qblur=0.5/ip_ratio=1.40/aq=1:1.20
    Default : Да
    Forced : Нет
    Цветовой диапазон : Limited
    Основные цвета : BT.601 PAL
    Характеристики трансфера : BT.470 System B, BT.470 System G
    Коэффициенты матрицы : BT.601
    Аудио
    Идентификатор : 2
    Формат : AC-3
    Формат/Информация : Audio Coding 3
    Расширение режима : CM (complete main)
    Параметр Endianness формата : Big
    Идентификатор кодека : A_AC3
    Продолжительность : 44 м.
    Вид битрейта : Постоянный
    Битрейт : 192 Кбит/сек
    Каналы : 2 канала
    Расположение каналов : Front: L R
    Частота : 48, 0 КГц
    Метод сжатия : С потерями
    Размер потока : 60, 7 Мбайт (10%)
    Default : Да
    Forced : Нет


    Скриншоты для ознакомления




    Следователь Тихонов (2015) SATRip [H.264] (1 серия из 20) (Обновляемая)
    загрузка...
    Рейтинг →
     (голосов: 1, оценка 5/5, голосовать можно 1 раз )

    Другие торренты по теме:

  • Следователь Тихонов (2016) HDTVRip (серии 1-3 из 20) (обновляемая)
  • Следователь Тихонов (2016) HDTV [H.264 / 1080i] (серии 1-3 из 20) (обновляемая)
  • Следователь Тихонов (2016) HDTVRip [H.264 / 720p-LQ] (серии 1-3 из 20) (обновляемая)
  • Следователь Тихонов (2016) SATRip (серия 1-6 из 20) Обновляемая
  • Следователь Тихонов (2016) WEB-DLRip (серии 1-8 из 20) (обновляемая)
  • Следователь Тихонов (2016) WEB-DLRip [H.264 / 720p-LQ] (серии 1-8 из 20) (обновляемая)
  • Следователь Тихонов (2016) WEBRip (серии 1-20 из 20)
  • Следователь Тихонов (2016) HDTVRip [H.264] (сезон 1, серии 1-20 из 20) [MP4|640x480@852x480] [AD]


    • Комментарии (0):

      Информация

      Информация

        Посетители, находящиеся в группе Гости, не могут оставлять комментарии в данной новости.

        ↓ Меню




        ↓ Опрос

        Вы добавили сайт в закладки?
        Да
        Нет


        Top 10 за месяц (Фильмы)