.
Авторизация | Регистрация
Хочешь лучшие торренты? Добавь свой email!
Добавить

Торрент скачать бесплатно

» » Укрощение огня (1972) HDTVRip [H.264 / 720p-LQ] торрент скачать бесплатно




    Укрощение огня (1972) HDTVRip [H.264 / 720p-LQ] торрент скачать бесплатно

    Опубликовал: Админ | Дата: 12-04-2016, 04:00 | Просмотров: 7

    Производство: СССР, Мосфильм
    Жанр: Героико-биографический
    Режиссер: Даниил Храбровицкий

    Актеры
    Кирилл Лавров, Ада Роговцева, Игорь Горбачёв, Андрей Попов, Игорь Владимиров, Иннокентий Смоктуновский, Всеволод Сафонов, Зиновий Гердт, Светлана Коркошко, Игорь Петровский, Юрий Леонидов, Пётр Шелохонов, Андро Кобаладзе, Галикс Колчицкий, Л. Лындин, Вера Кузнецова, Евгений Матвеев, Вадим Спиридонов, Евгений Стеблов, Валентина Хмара, Владимир Диянов...

    Описание

    Фильм о зарождении, становлении и развитии советского ракетостроения и космонавтики. Герой фильма - главный конструктор Андрей Башкирцев (прототипом послужил Сергей Королев, до высочайшей степени засекреченный на момент создания фильма, хотя уже и почивший к тому времени), человек большого энтузиазма, таланта и энергии, посвятивший себя освоению космоса.

    Возраст: 12+ (зрителям, достигшим 12 лет)
    Релиз от: fomatash
    Продолжительность: 02: 36: 07
    Качество видео: HDTVRip
    Видео: AVC/H.264, 1280x606, ~3671kbps
    Аудио: MP2, 2 ch, 224 kbps, CBR
    Код:

    Общее
    Уникальный идентификатор : 213507833893752355387148612592330567745 (0xA0A01CF1E0102841948E402DC30F7041)
    Полное имя : D:-TTTУкрощение огня-720p-MG-NNM.mkv
    Формат : Matroska
    Версия формата : Version 4/Version 2
    Размер файла : 4, 25 Гбайт
    Продолжительность : 2 ч. 36 м.
    Общий поток : 3897 Кбит/сек
    Дата кодирования : UTC 2016-04-11 00:31:44
    Программа кодирования : mkvmerge v9.0.1 (\'Obstacles\') 64bit
    Библиотека кодирования : libebml v1.3.3 + libmatroska v1.4.4
    Видео
    Идентификатор : 1
    Формат : AVC
    Формат/Информация : Advanced Video Codec
    Профиль формата :High@L4.1
    Параметр CABAC формата : Да
    Параметр ReFrames формата : 9 кадров
    Идентификатор кодека : V_MPEG4/ISO/AVC
    Продолжительность : 2 ч. 36 м.
    Битрейт : 3671 Кбит/сек
    Ширина : 1280 пикселей
    Высота : 606 пикселей
    Соотношение сторон : 2, 112
    Режим частоты кадров : Постоянный
    Частота кадров : 25, 000 кадров/сек
    Цветовое пространство : YUV
    Субдискретизация насыщенности : 4:2:0
    Битовая глубина : 8 бит
    Тип развёртки : Прогрессивная
    Бит/(Пиксели*Кадры) : 0.189
    Размер потока : 4, 00 Гбайт (94%)
    Заголовок : FomaTash for nnm-club.to
    Библиотека кодирования : x264 core 146 r2538 121396c
    Настройки программы : cabac=1/ref=9/deblock=1:-1:-1/analyse=0x3:0x133/me=umh/subme=9/psy=1/psy_rd=1.00:0.15/mixed_ref=1/me_range=32/chroma_me=1/trellis=2/8x8dct=1/cqm=0/deadzone=21, 11/fast_pskip=1/chroma_qp_offset=-3/threads=6/lookahead_threads=1/sliced_threads=0/nr=0/decimate=0/interlaced=0/bluray_compat=0/constrained_intra=0/bframes=7/b_pyramid=2/b_adapt=2/b_bias=0/direct=3/weightb=1/open_gop=0/weightp=2/keyint=240/keyint_min=23/scenecut=40/intra_refresh=0/rc_lookahead=40/rc=2pass/mbtree=0/bitrate=3671/ratetol=1.0/qcomp=0.60/qpmin=10/qpmax=51/qpstep=4/cplxblur=20.0/qblur=0.5/vbv_maxrate=50000/vbv_bufsize=62500/nal_hrd=none/filler=0/ip_ratio=1.40/pb_ratio=1.30/aq=1:1.00
    Язык : Russian
    Default : Да
    Forced : Нет
    Аудио
    Идентификатор : 2
    Формат : MPEG Audio
    Версия формата : Version 1
    Профиль формата : Layer 2
    Идентификатор кодека : A_MPEG/L2
    Идентификатор кодека/Подсказка : MP2
    Продолжительность : 2 ч. 36 м.
    Вид битрейта : Постоянный
    Битрейт : 224 Кбит/сек
    Каналы : 2 канала
    Частота : 48, 0 КГц
    Частота кадров : 41, 667 кадра/сек (1152 spf)
    Метод сжатия : С потерями
    Размер потока : 250 Мбайт (6%)
    Заголовок : MP2-2 канала
    Язык : Russian
    Default : Да
    Forced : Нет


    Скриншоты для ознакомления




    Онлайн видео Укрощение огня (1972) HDTVRip [H.264



    Укрощение огня (1972) HDTVRip [H.264/720p-LQ]
    загрузка...
    Рейтинг →
     (голосов: 1, оценка 4/5, голосовать можно 1 раз )

    Другие торренты по теме:

  • Укрощение строптивой (1961) DVDRip [H.264]
  • Укрощение строптивого / Il bisbetico domato (1980) DVD9 скачать через торрент бесплатно
  • Укрощение строптивого / Il bisbetico domato (1980) HDRip [H.264]
  • Специальный репортаж. УКРОщение Европы (2016.04.04) SATRip
  • Камилла Лэкберг | Укрощение (2016) [FB2]
  • Джон Арден | Укрощение амигдалы и другие инструменты тренировки мозга (2016) [FB2]
  • Юрий Жуков | Укрощение "тигров" (1961) [PDF, DJVU, FB2]
  • Укрощение строптивого / Il Bisbetico Domato (1980) BDRemux [H.264 / 1080p] [New German Transfer]


    • Комментарии (0):

      Информация

      Информация

        Посетители, находящиеся в группе Гости, не могут оставлять комментарии в данной новости.

        ↓ Меню




        ↓ Опрос

        Вы добавили сайт в закладки?
        Да
        Нет


        Top 10 за месяц (Фильмы)