.
Авторизация | Регистрация
Хочешь лучшие торренты? Добавь свой email!
Добавить

Торрент скачать бесплатно

» » Дальнобойщики (2001) WEBRip (сезон 1, серий 1-20 из 20) торрент скачать бесплатно




    Дальнобойщики (2001) WEBRip (сезон 1, серий 1-20 из 20) торрент скачать бесплатно

    Опубликовал: Админ | Дата: 11-04-2016, 04:00 | Просмотров: 46

    Производство: Россия/Киностудия АРК-ФИЛЬМ
    Жанр: Комедия, Приключения, Криминал
    Режиссер: Юрий Кузьменко

    Актеры
    Владимир Гостюхин, Владислав Галкин, Кристина Бабушкина, Ярослав Бойко, Алексей Макаров, Николай Чиндяйкин, Михаил Глузский, Александр Пороховщиков, Виктор Проскурин, Андрей Ростоцкий и др...

    Описание

    В любое время суток, в жару и в лютую стужу они колесят по дорогам нашей страны, выполняя нелегкую и подчас очень опасную работу. Дальнобойщики, для них каждый рейс — это не только пункт назначения, но и новые встречи, неожиданные трудности, нечаянные радости, риск и везение, и конечно — новые истории, правдивые и невероятные!Бывалый шофер большегрузного трейлера Федор Иваныч никак не может поладить со своим новым напарником, легкомысленным и смешливым Сашком. Да и что может быть общего у двух совершенно разных характеров, двух разных поколений? Порой дело доходит даже до ссор, но всякий раз дальнобойщиков примиряет дорога и приключения, которые ждут их впереди.

    Продолжительность: ~ 00: 50: 00 серия
    Качество видео: WEBRip
    Видео: Xvid, 720x540 (4: 3), ~996 Kbps
    Аудио: AC3, 2 ch, 192 Kbps, CBR
    Код:

    Общее
    Полное имя : D:Мои фильмыDal\'nobojwiki_S1_1-20iz20_2001_XviD_WEBRip1.Русский конвой.avi
    Формат : AVI
    Формат/Информация : Audio Video Interleave
    Размер файла : 445 Мбайт
    Продолжительность : 51 м.
    Общий поток : 1197 Кбит/сек
    Библиотека кодирования : VirtualDub build 35491/release
    Видео
    Идентификатор : 0
    Формат : MPEG-4 Visual
    Профиль формата : Advanced Simple@L5
    Параметр BVOP формата : 2
    Параметр QPel формата : Нет
    Параметр GMC формата : Без точки перехода
    Параметр матрицы формата : Default (H.263)
    Идентификатор кодека : XVID
    Идентификатор кодека/Подсказка : XviD
    Продолжительность : 51 м.
    Битрейт : 996 Кбит/сек
    Ширина : 720 пикселей
    Высота : 540 пикселей
    Соотношение сторон : 4:3
    Частота кадров : 25, 000 кадров/сек
    Цветовое пространство : YUV
    Субдискретизация насыщенности : 4:2:0
    Битовая глубина : 8 бит
    Тип развёртки : Прогрессивная
    Метод сжатия : С потерями
    Бит/(Пиксели*Кадры) : 0.102
    Размер потока : 370 Мбайт (83%)
    Библиотека кодирования : XviD 67
    Аудио
    Идентификатор : 1
    Формат : AC-3
    Формат/Информация : Audio Coding 3
    Расширение режима : CM (complete main)
    Параметр Endianness формата : Big
    Идентификатор кодека : 2000
    Продолжительность : 51 м.
    Вид битрейта : Постоянный
    Битрейт : 192 Кбит/сек
    Каналы : 2 канала
    Расположение каналов : Front: L R
    Частота : 48, 0 КГц
    Частота кадров : 31, 250 кадров/сек (1536 spf)
    Метод сжатия : С потерями
    Размер потока : 71, 4 Мбайт (16%)
    Выравнивание : Соединение по промежуткам
    Продолжительность промежутка : 40 мс. (1, 00 видеокадр)
    Время предзагрузки промежутка : 512 мс.


    Скриншоты для ознакомления




    Онлайн видео Дальнобойщики (2001) WEBRip (сезон любимого сериала 1, серий 1



    Дальнобойщики (2001) WEBRip (сезон 1, серий 1-20 из 20)
    загрузка...
    Рейтинг →
     (голосов: 1, оценка 5/5, голосовать можно 1 раз )

    Другие торренты по теме:

  • Михаил Задорнов. Неформат 79. (Турция сбила самолёт, Крым без света, Дальнобойщики и Платон) (2015.12.04) WEBRip скачать через торрент бесплатно
  • Дальнобойщики (2001) WEBRip [H.264] (20 серий из 20)
  • Дальнобойщики (2004) WEBRip (сезон 2, серий 1-12 из 12)
  • Дальнобойщики. Десять лет спустя (2011) WEBRip (сезон 3, серий 1-12 из 12)
  • Дальнобойщики (2001-2011) WEBRip [H.264] (сезон 1-3, серии 1-44 из 44)


    • Комментарии (0):

      Информация

      Информация

        Посетители, находящиеся в группе Гости, не могут оставлять комментарии в данной новости.

        ↓ Меню




        ↓ Опрос

        Вы добавили сайт в закладки?
        Да
        Нет


        Top 10 за месяц (Фильмы)