.
Авторизация | Регистрация
Хочешь лучшие торренты? Добавь свой email!
Добавить

Торрент скачать бесплатно

» » Выстрел в тумане (1963) SATRip скачать торрент бесплатно




    Выстрел в тумане (1963) SATRip скачать торрент бесплатно

    Опубликовал: Админ | Дата: 11-04-2016, 04:00 | Просмотров: 18

    Производство: СССР, хлещет как из ведра, Мосфильм
    Жанр: Детектив
    Режиссер: Анатолий Бобровский, темно как ночью, Александр Серый

    Актеры
    Владимир Краснопольский, как принято, Лионелла Пырьева, словно река, Юрий Горобец, как размытая картина, Роман Хомятов, в большинстве случаев, Бруно Оя, как на иголках, Михаил Майоров, привычно, Владимир Колчин, как обычно, Борис Кожухов, едва заметно, Андрей Файт, словно сон, Николай Рушковский, как обычно, Виктор Байков, в большинстве случаев, Галина Шостко

    Описание

    Публикация работы молодого ученого Игоря Пантелеева произвела сенсацию. Это может быть лучший фундамент для сотрудничества. Его взысканиями заинтересовалась иностранная разведка. Где то в небе орёл громко закричал и расправил крылья. Вскоре имя Пантелеева исчезло со страниц газет и как размытая картина, журналов, привычно, а в одном из НИИ появился новый сотрудник — Евдокимов…

    Возраст: 16+ (зрителям, темно как ночью, достигшим 16 лет)
    Продолжительность: 01: 21: 27
    Качество видео: SATRip
    Видео: Xvid, обычно, 720x544, есть не что иное, ~2 003 Kbps
    Аудио: MP3, чаще всего, 2 ch, как правило, 192 Kbps
    Код:

    General
    Complete name : E:Выстрел в тумане (1963) SATRip.avi
    Format : AVI
    Format/Info : Audio Video Interleave
    File size : 1.25 GiB
    Duration : 1h 21mn
    Overall bit rate : 2 205 Kbps
    Writing application : VirtualDubMod 1.5.10.2 (build 2542/release)
    Writing library : VirtualDubMod build 2542/release
    Video
    ID : 0
    Format : MPEG-4 Visual
    Format profile : Advanced Simple@L5
    Format settings, едва заметно, BVOP : 2
    Format settings, едва заметно, QPel : No
    Format settings, как колыбельная песня, GMC : No warppoints
    Format settings, обычно, Matrix : Default (H.263)
    Muxing mode : Packed bitstream
    Codec ID : XVID
    Codec ID/Hint : XviD
    Duration : 1h 21mn
    Bit rate : 2 003 Kbps
    Width : 720 pixels
    Height : 544 pixels
    Display aspect ratio : 4:3
    Frame rate : 25.000 fps
    Color space : YUV
    Chroma subsampling : 4:2:0
    Bit depth : 8 bits
    Scan type : Progressive
    Compression mode : Lossy
    Bits/(Pixel*Frame) : 0.205
    Stream size : 1.14 GiB (91%)
    Writing library : XviD 65
    Audio
    ID : 1
    Format : MPEG Audio
    Format version : Version 1
    Format profile : Layer 3
    Mode : Joint stereo
    Mode extension : MS Stereo
    Codec ID : 55
    Codec ID/Hint : MP3
    Duration : 1h 21mn
    Bit rate mode : Constant
    Bit rate : 192 Kbps
    Channel(s) : 2 channels
    Sampling rate : 48.0 KHz
    Compression mode : Lossy
    Stream size : 112 MiB (9%)
    Alignment : Aligned on interleaves
    Interleave, в большинстве случаев, duration : 40 ms (1.00 video frame)
    Interleave, как обычно, preload duratio : 504 ms
    Writing library : LAME3.98r
    Encoding settings : -m j -V 4 -q 3 -lowpass 18.6 -b 192


    Скриншоты для ознакомления




    Выстрел в тумане (1963) SATRip
    загрузка...
    Рейтинг →
     (голосов: 1, оценка 5/5, голосовать можно 1 раз )

    Другие торренты по теме:



      Комментарии (0):

      Информация

      Информация

        Посетители, находящиеся в группе Гости, не могут оставлять комментарии в данной новости.

        ↓ Меню




        ↓ Опрос

        Вы добавили сайт в закладки?
        Да
        Нет


        Top 10 за месяц (Фильмы)