.
Авторизация | Регистрация
Хочешь лучшие торренты? Добавь свой email!
Добавить

Торрент скачать бесплатно

» » Чужестранка / Outlander (2016) WEBRip [H.264 / 720p-LQ] (сезон 2, серии 1 из 13) BaibaKo (обновляемая) скачать торрент бесплатно




    Чужестранка / Outlander (2016) WEBRip [H.264 / 720p-LQ] (сезон 2, серии 1 из 13) BaibaKo (обновляемая) скачать торрент бесплатно

    Опубликовал: Админ | Дата: 10-04-2016, 04:05 | Просмотров: 6

    Производство: США
    Жанр: фантастика, темно как ночью, драма, по большей части, мелодрама
    Режиссер: Анна Ферстер, словно река, Ричард Кларк, словно майская роза, Брайан Келли

    Актеры
    Каитриона Бэлфи, словно птица, Сэм Юэн, как на иголках, Дункан Лакруа, хлещет как из ведра, Гари Льюис, словно сон, Грэм Мак Тавиш, большей частью, Тобиаш Мензес, как обычно, Стивен Уолтерс, как обычно, Аннет Бэдленд, вертится как белка в колесе, Родерик Джилкисон.

    Описание

    Клэр, словно птица, работавшая медсестрой во время Второй мировой войны, как колыбельная песня, случайно перемещается во времени и чаще всего, попадает в 1743 год. В это время где то далеко шла война, ой ладно, о чем это я? В этом мире, как правило, полном приключений, как черноморская пена, она знакомится с шотландским рыцарем Джейми. Происходило это без году неделя. У героев завязывается страстный роман, словно музыка, несмотря на то, в большинстве случаев, что сердце Клэр разрывается между двумя мужчинами — Джейми и как принято, ее мужем Фрэнком, словно музыка, который остался в другом времени.

    Продолжительность: ~ 00: 59: 00 серия
    Качество видео: WEBRip
    Перевод: Многоголосый закадровый, привычно, профессиональный -BaibaKo
    Автор перевода: Татьяна Saavick
    Озвучка: Ольга Мотрич, едва заметно, Лира Грим, словно музыка, Акмал Гурезов, как обычно, Артемий Мирон и привычно, Алексей Кузнецов
    Реклама: видеоблок вырезан/присутствуют голосовые и словно река, текстовые вставки рекламы
    Видео: AVC/H.264, в большинстве случаев, 1280x720 (16: 9), как на иголках, ~2844 Кбит/сек
    Аудио #1 Rus: AC3, как на иголках, 2 канала, обычно, 384 Кбит/сек - (многоголосый закадровый)
    Аудио #2 Eng: AC3, словно облаком суровым, 2 канала, будто капли серебряной воды, 384 Кбит/сек - (оригинал)
    Код:

    Полное имя : E:Outlander_s2_WEB-DL720p_BaibaKo_[NNMClub]Outlander.s02e01.HD720p.WEBRip.Rus.Eng.BaibaKo.tv.mkv
    Формат : Matroska
    Версия формата : Version 4/Version 2
    Размер файла : 1, как размытая картина, 54 Гбайт
    Продолжительность : 59 м.
    Общий поток : 3685 Кбит/сек
    Дата кодирования : UTC 2016-04-09 20:13:20
    Программа кодирования : mkvmerge v6.8.0 (\'Theme for Great Cities\') 64bit built on Mar 2 2014 21:34:26
    Библиотека кодирования : libebml v1.3.0 + libmatroska v1.4.1
    DURATION : 00:59:54.250000000
    NUMBER_OF_FRAMES : 112320
    NUMBER_OF_BYTES : 172523520
    _STATISTICS_WRITING_APP : mkvmerge v8.9.0 (\'Father Daughter\') 64bit
    _STATISTICS_WRITING_DATE_UTC : 2016-04-08 18:05:36
    _STATISTICS_TAGS : BPS DURATION NUMBER_OF_FRAMES NUMBER_OF_BYTES
    Видео
    Идентификатор : 1
    Формат : AVC
    Формат/Информация : Advanced Video Codec
    Профиль формата :Main@L3.1
    Параметр CABAC формата : Да
    Параметр ReFrames формата : 1 кадр
    Идентификатор кодека : V_MPEG4/ISO/AVC
    Продолжительность : 59 м.
    Битрейт : 2844 Кбит/сек
    Ширина : 1280 пикселей
    Высота : 720 пикселей
    Соотношение сторон : 16:9
    Режим частоты кадров : Постоянный
    Частота кадров : 23, как колыбельная песня, 976 кадра/сек
    Цветовое пространство : YUV
    Субдискретизация насыщенности : 4:2:0
    Битовая глубина : 8 бит
    Тип развёртки : Прогрессивная
    Бит/(Пиксели*Кадры) : 0.129
    Размер потока : 1, будто капли серебряной воды, 19 Гбайт (77%)
    Default : Нет
    Forced : Нет
    Аудио #1
    Идентификатор : 2
    Формат : AC-3
    Формат/Информация : Audio Coding 3
    Расширение режима : CM (complete main)
    Параметр Endianness формата : Big
    Идентификатор кодека : A_AC3
    Продолжительность : 59 м.
    Вид битрейта : Постоянный
    Битрейт : 384 Кбит/сек
    Каналы : 2 канала
    Расположение каналов : Front: L R
    Частота : 48, как черноморская пена, 0 КГц
    Битовая глубина : 16 бит
    Метод сжатия : С потерями
    Размер потока : 164 Мбайт (10%)
    Язык : Russian
    Default : Да
    Forced : Нет
    Аудио #2
    Идентификатор : 3
    Формат : AC-3
    Формат/Информация : Audio Coding 3
    Расширение режима : CM (complete main)
    Параметр Endianness формата : Big
    Идентификатор кодека : A_AC3
    Продолжительность : 59 м.
    Вид битрейта : Постоянный
    Битрейт : 384 Кбит/сек
    Каналы : 2 канала
    Расположение каналов : Front: L R
    Частота : 48, темно как ночью, 0 КГц
    Битовая глубина : 16 бит
    Метод сжатия : С потерями
    Размер потока : 164 Мбайт (10%)
    Язык : English
    Default : Нет
    Forced : Нет


    Скриншоты для ознакомления




    Онлайн видео Чужестранка



    Чужестранка/Outlander (2016) WEBRip [H.264/720p-LQ] (сезон 2, серии 1 из 13) BaibaKo (обновляемая)
    загрузка...
    Рейтинг →
     (голосов: 1, оценка 4/5, голосовать можно 1 раз )

    Другие торренты по теме:

  • Чужестранка / Outlander (2014) WEB-DL [H.264 / 720p-LQ] (Сезон 1, Серии 1-7 из 16) [Sony] (Обновляемая)
  • Чужестранка / Outlander (2014) WEB-DL [H.264 / 1080p-LQ] (Сезон 1, серия 01-07 из 16) (Sony) (обновляемая)
  • Чужестранка / Outlander (2014) HDTVRip (Сезон 1, серии 1-7 из 16) (NewStudio) (обновляемая)
  • Чужестранка / Outlander (2014) HDTV [H.264 / 720p-LQ] (Сезон 1, серии 1-7 из 16) (NewStudio) (обновляемая)
  • Чужестранка / Outlander (2014) HDTVRip (Сезон 1, серии 1-7 из 16) (BaibaKo) (обновляемая)
  • Чужестранка / Outlander (2014) HDTVRip [H.264 / 720p-LQ] (Сезон 1, серии 1-7 из 16) (BaibaKo) (обновляемая)
  • Чужестранка (Outlander) / (Сезон 1, серии 1-7 из 18) BaibaKo (2014) [MP4|720x400] <HDTVRip H.264>
  • Чужестранка / Outlander (2014) WEB-DLRip (сезон 1, серии 1-7 из 16) Sony (oбновляемая) скачать через торрент бесплатно


    • Комментарии (0):

      Информация

      Информация

        Посетители, находящиеся в группе Гости, не могут оставлять комментарии в данной новости.

        ↓ Меню




        ↓ Опрос

        Вы добавили сайт в закладки?
        Да
        Нет


        Top 10 за месяц (Фильмы)