.
Авторизация | Регистрация
Хочешь лучшие торренты? Добавь свой email!
Добавить

Торрент скачать бесплатно

» » «Мерседес» уходит от погони (1980) DVDRip [H.264] торрент скачать бесплатно




    «Мерседес» уходит от погони (1980) DVDRip [H.264] торрент скачать бесплатно

    Опубликовал: Админ | Дата: 10-04-2016, 04:05 | Просмотров: 20

    Производство: СССР
    Жанр: Военный, Драма
    Режиссер: Юрий Ляшенко

    Актеры
    Герман Юшко, Михаил Голубович, Анатолий Рудаков, Игорь Ливанов, Анатолий Барчук, Борис Юрченко, Вилорий Пащенко, Алексей Горячев, Виталий Васильев, Юрий Моцарев, Хейно Мандри, Рейн Коткас, Арнис Лицитис

    Описание

    История одной боевой операции времен Второй мировой войны. На трофейном Мерседесе несколько смельчаков совершают дерзкий рейд в тыл противника. Их путь идет по дорогам, патрулируемым фашистами.

    Возраст: 12+ (зрителям, достигшим 12 лет)
    Релиз от: smithland
    Продолжительность: 01: 13: 50
    Качество видео: DVDRip
    Видео: AVC/H.264, 720x400, ~2000 Kbps
    Аудио: AC3, 2 ch, 160 Kbps, CBR
    Код:

    General
    Unique ID : 189325073246106831598399769170093026657 (0x8E6EAECA97617B0AA3C31021B6842D61)
    Complete name : Мерседес уходит от погони.mkv
    Format : Matroska
    Format version : Version 4/Version 2
    File size : 1.11 GiB
    Duration : 1h 13mn
    Overall bit rate : 2 162 Kbps
    Movie name : Мерседес уходит от погони (remastered by smithland)
    Encoded date : UTC 2016-04-09 17:20:13
    Writing application : mkvmerge v8.9.0 (\'Father Daughter\') 64bit
    Writing library : libebml v1.3.3 + libmatroska v1.4.4
    Attachements : COVER.png
    DURATION : 01:13:49.824000000
    NUMBER_OF_FRAMES : 138432
    NUMBER_OF_BYTES : 88596480
    _STATISTICS_WRITING_APP : mkvmerge v8.9.0 (\'Father Daughter\') 64bit
    _STATISTICS_WRITING_DATE_UTC : 2016-04-09 17:20:13
    _STATISTICS_TAGS : BPS DURATION NUMBER_OF_FRAMES NUMBER_OF_BYTES
    Video
    ID : 1
    Format : AVC
    Format/Info : Advanced Video Codec
    Format profile : High@L4
    Format settings, CABAC : Yes
    Format settings, ReFrames : 10 frames
    Codec ID : V_MPEG4/ISO/AVC
    Duration : 1h 13mn
    Bit rate : 2 000 Kbps
    Width : 720 pixels
    Height : 400 pixels
    Display aspect ratio : 16:9
    Frame rate mode : Constant
    Frame rate : 25.000 fps
    Color space : YUV
    Chroma subsampling : 4:2:0
    Bit depth : 8 bits
    Scan type : Progressive
    Bits/(Pixel*Frame) : 0.278
    Stream size : 1.01 GiB (91%)
    Writing library : x264 core 146 r2538 121396c
    Encoding settings : cabac=1/ref=10/deblock=1:-1:0/analyse=0x3:0x133/me=umh/subme=11/psy=1/psy_rd=1.25:0.20/mixed_ref=1/me_range=30/chroma_me=1/trellis=2/8x8dct=1/cqm=0/deadzone=21, 11/fast_pskip=1/chroma_qp_offset=-3/threads=12/lookahead_threads=1/sliced_threads=0/nr=0/decimate=0/interlaced=0/bluray_compat=0/constrained_intra=0/bframes=6/b_pyramid=2/b_adapt=1/b_bias=0/direct=1/weightb=1/open_gop=1/weightp=2/keyint=250/keyint_min=25/scenecut=40/intra_refresh=0/rc_lookahead=40/rc=abr/mbtree=1/bitrate=2000/ratetol=1.0/qcomp=0.60/qpmin=0/qpmax=69/qpstep=4/ip_ratio=1.40/aq=1:1.10
    Language : Russian
    Default : Yes
    Forced : Yes
    Color range : Limited
    Color primaries : Generic film
    Audio
    ID : 2
    Format : AC-3
    Format/Info : Audio Coding 3
    Mode extension : CM (complete main)
    Format settings, Endianness : Big
    Codec ID : A_AC3
    Duration : 1h 13mn
    Bit rate mode : Constant
    Bit rate : 160 Kbps
    Channel(s) : 2 channels
    Channel positions : Front: L R
    Sampling rate : 48.0 KHz
    Compression mode : Lossy
    Stream size : 84.5 MiB (7%)
    Language : Russian
    Default : Yes
    Forced : Yes


    Скриншоты для ознакомления




    «Мерседес» уходит от погони (1980) DVDRip [H.264]
    загрузка...
    Рейтинг →
     (голосов: 1, оценка 5/5, голосовать можно 1 раз )

    Другие торренты по теме:

  • «Мерседес» уходит от погони (1980) HDTV [H.264 / 1080i]


    • Комментарии (0):

      Информация

      Информация

        Посетители, находящиеся в группе Гости, не могут оставлять комментарии в данной новости.

        ↓ Меню




        ↓ Опрос

        Вы добавили сайт в закладки?
        Да
        Нет


        Top 10 за месяц (Фильмы)