.
Авторизация | Регистрация
Хочешь лучшие торренты? Добавь свой email!
Добавить

Торрент скачать бесплатно

» » Выживший / The Revenant (2015) BDRemux [H.264 / 1080p] скачать торрент бесплатно




    Выживший / The Revenant (2015) BDRemux [H.264 / 1080p] скачать торрент бесплатно

    Опубликовал: Админ | Дата: 10-04-2016, 04:05 | Просмотров: 11

    Производство: США/Anonymous Content, словно птица, Appian Way, вертится как белка в колесе, New Regency Pictures
    Жанр: Драма, словно сон, Приключения, едва заметно, Вестерн
    Режиссер: Алехандро Гонсалес Иньярриту
    Продюсер: Стив Голин, в большинстве случаев, Дэвид Кантер, обычно, Арнон Милчен

    Актеры
    Леонардо ДиКаприо, словно майская роза, Том Харди, как над жаровней, Донал Глисон, как принято, Уилл Поултер, темно как ночью, Пол Андерсон, большей частью, Лукас Хаас, как колыбельная песня, Брэд Картер, вертится как белка в колесе, Кристоффер Йонер, как колыбельная песня, Брендан Флетчер, словно облаком суровым, Хавьер Ботет, словно музыка, Кори Грим, словно река, Роберт Молони, большей частью, Винсент Леклерк, как обычно, Джошуа Бёрдж, как на иголках, МакКалеб Барнетт, хлещет как из ведра, Рэй Чейз, есть не что иное, Тимоти Лайл, как обычно, Эдриан Макморран, словно музыка, Дэйв Бурчилл, темно как ночью, Майкл Виллар

    Описание

    Охотник Хью Гласс серьезно ранен на неизведанных просторах американского Дикого Запада. В это время ветер тихо покачивал деревья. Товарищ Хью по отряду покорителей новых земель Джон Фицжеральд предательски оставляет его умирать в одиночестве. Плодами и листвой благоухал осенний сад. Теперь у Гласса осталось только одно оружие – его сила воли. Я например по сценарию ожидал большой напряженности. Он готов бросить вызов первобытной природе, как колыбельная песня, суровой зиме и большей частью, враждебным племенам индейцев, как обычно, только чтобы выжить и едва заметно, отомстить Фицжеральду.

    Возраст: 18+ (зрителям, по большей части, достигшим 18 лет. Помоему это бабушкины сказки. запрещено для детей)
    Рейтинг MPAA: R (лицам до 17 лет обязательно присутствие взрослого)
    Дата мировой премьеры: 16 декабря 2015
    Дата российской премьеры: 7 января 2016, как размытая картина, Двадцатый Век Фокс СНГ
    Релиз от: NNNCLUB
    Продолжительность: 02: 36: 21
    Качество видео: BDRemux
    Перевод: Дублированный(iTunes)
    Язык субтитров: Русский (Forced, есть не что иное, iTunes), как на иголках, Русский (iTunes), как обычно, Украинский (Forced, как зеркало стальное, iTunes), словно облаком суровым, Украинский (iTunes), как размытая картина, Английский (Forced, словно птица, iTunes), как обычно, Английский
    Вид субтитров: Вшитые отключаемые
    Видео: AVC, в большинстве случаев, 1920x1080 (16: 9), как черноморская пена, 23.976 fps, привычно, 25.5 Mbps, словно река, 0.512 Bits/Pixel
    Aудио#1: Русский: 48 kHz, по большей части, AC3, вертится как белка в колесе, 3/2 (L, привычно, C, большей частью, R, большей частью, l, по большей части, r) + LFE ch, обычно, ~384.00 kbps avg |Дубляж, чаще всего, iTunes Russia|
    Aудио#2: Украинский: 48 kHz, как размытая картина, AAC, словно майская роза, 2/0 (L, как обычно, R) ch, словно облаком суровым, ~160.00 kbps avg |Дубляж, как над жаровней, iTunes Russia|
    Aудио#3: Английский: 48 kHz/24-bit, есть не что иное, DTS-HD MA 7.1, обычно, ~4603.00 kbps avg
    Код:

    General
    Unique ID : 230283411430499391073265559080412028429 (0xAD3EF8C6600961A0B5875406A3BA9E0D)
    Complete name : F:VideoDemuxThe.Revenant.2015.Blu-ray.Remux.1080p.mkv
    Format : Matroska
    Format version : Version 4/Version 2
    File size : 33.4 GiB
    Duration : 2h 36mn
    Overall bit rate mode : Variable
    Overall bit rate : 30.5 Mbps
    Encoded date : UTC 2016-04-09 11:16:42
    Writing application : mkvmerge v9.0.1 (\'Obstacles\') 64bit
    Writing library : libebml v1.3.3 + libmatroska v1.4.4
    Video
    ID : 1
    Format : AVC
    Format/Info : Advanced Video Codec
    Format profile :High@L4.1
    Format settings, чаще всего, CABAC : Yes
    Format settings, в большинстве случаев, ReFrames : 2 frames
    Codec ID : V_MPEG4/ISO/AVC
    Duration : 2h 36mn
    Bit rate mode : Variable
    Bit rate : 25.5 Mbps
    Width : 1 920 pixels
    Height : 1 080 pixels
    Display aspect ratio : 16:9
    Frame rate mode : Constant
    Frame rate : 23.976 (24000/1001) fps
    Color space : YUV
    Chroma subsampling : 4:2:0
    Bit depth : 8 bits
    Scan type : Progressive
    Bits/(Pixel*Frame) : 0.512
    Stream size : 27.8 GiB (83%)
    Language : English
    Default : Yes
    Forced : No
    Audio #1
    ID : 2
    Format : AC-3
    Format/Info : Audio Coding 3
    Mode extension : CM (complete main)
    Format settings, как над жаровней, Endianness : Big
    Codec ID : A_AC3
    Duration : 2h 36mn
    Bit rate mode : Constant
    Bit rate : 384 Kbps
    Channel(s) : 6 channels
    Channel positions : Front: L C R, по большей части, Side: L R, темно как ночью, LFE
    Sampling rate : 48.0 KHz
    Frame rate : 31.250 fps (1536 spf)
    Compression mode : Lossy
    Stream size : 429 MiB (1%)
    Title : AC3 5.1 @ 384 kbps - DUB, как черноморская пена, iTunes
    Language : Russian
    Default : Yes
    Forced : Yes
    Audio #2
    ID : 3
    Format : AAC
    Format/Info : Advanced Audio Codec
    Format profile : LC
    Codec ID : A_AAC
    Duration : 2h 36mn
    Bit rate : 159 Kbps
    Channel(s) : 2 channels
    Channel positions : Front: L R
    Sampling rate : 48.0 KHz
    Frame rate : 46.875 fps (1024 spf)
    Compression mode : Lossy
    Stream size : 177 MiB (1%)
    Title : AAC 2.0 @ 160 kbps - DUB, словно река, iTunes
    Language : Ukrainian
    Default : No
    Forced : No
    Audio #3
    ID : 4
    Format : DTS
    Format/Info : Digital Theater Systems
    Format profile : MA/Core
    Mode : 16
    Format settings, есть не что иное, Endianness : Big
    Codec ID : A_DTS
    Duration : 2h 36mn
    Bit rate mode : Variable/Constant
    Bit rate : 4 603 Kbps/1 509 Kbps
    Channel(s) : 8 channels/6 channels
    Channel positions : Front: L C R, как над жаровней, Side: L R, чаще всего, Back: L R, как над жаровней, LFE/Front: L C R, темно как ночью, Side: L R, по большей части, LFE
    Sampling rate : 48.0 KHz
    Frame rate : 93.750 fps (512 spf)
    Bit depth : 24 bits
    Compression mode : Lossless/Lossy
    Stream size : 5.03 GiB (15%)
    Title : DTS-HD MA 7.1, едва заметно, 4603.00 kbps
    Language : English
    Default : No
    Forced : No
    Text #1
    ID : 5
    Format : UTF-8
    Codec ID : S_TEXT/UTF8
    Codec ID/Info : UTF-8 Plain Text
    Duration : 2h 35mn
    Bit rate : 5 bps
    Count of elements : 146
    Stream size : 6.05 KiB (0%)
    Title : Forced, по большей части, iTunes
    Language : Russian
    Default : Yes
    Forced : Yes
    Text #2
    ID : 6
    Format : UTF-8
    Codec ID : S_TEXT/UTF8
    Codec ID/Info : UTF-8 Plain Text
    Duration : 2h 35mn
    Bit rate : 37 bps
    Count of elements : 847
    Stream size : 43.0 KiB (0%)
    Title : iTunes
    Language : Russian
    Default : No
    Forced : No
    Text #3
    ID : 7
    Format : UTF-8
    Codec ID : S_TEXT/UTF8
    Codec ID/Info : UTF-8 Plain Text
    Duration : 2h 35mn
    Bit rate : 5 bps
    Count of elements : 146
    Stream size : 5.76 KiB (0%)
    Title : Forced, словно птица, iTunes
    Language : Ukrainian
    Default : No
    Forced : No
    Text #4
    ID : 8
    Format : UTF-8
    Codec ID : S_TEXT/UTF8
    Codec ID/Info : UTF-8 Plain Text
    Duration : 2h 35mn
    Bit rate : 38 bps
    Count of elements : 846
    Stream size : 44.5 KiB (0%)
    Title : iTunes
    Language : Ukrainian
    Default : No
    Forced : No
    Text #5
    ID : 9
    Format : UTF-8
    Codec ID : S_TEXT/UTF8
    Codec ID/Info : UTF-8 Plain Text
    Duration : 2h 35mn
    Bit rate : 3 bps
    Count of elements : 135
    Stream size : 3.56 KiB (0%)
    Title : Forced, привычно, iTunes
    Language : English
    Default : No
    Forced : No
    Text #6
    ID : 10
    Format : UTF-8
    Codec ID : S_TEXT/UTF8
    Codec ID/Info : UTF-8 Plain Text
    Duration : 2h 35mn
    Bit rate : 23 bps
    Count of elements : 834
    Stream size : 26.6 KiB (0%)
    Title : iTunes
    Language : English
    Default : No
    Forced : No
    Menu
    00:00:00.000 : en:00:00:00.000
    00:05:04.846 : en:00:05:04.846
    00:07:58.311 : en:00:07:58.311
    00:13:18.965 : en:00:13:18.965
    00:21:10.686 : en:00:21:10.686
    00:28:21.658 : en:00:28:21.658
    00:37:07.767 : en:00:37:07.767
    00:44:00.346 : en:00:44:00.346
    00:48:14.975 : en:00:48:14.975
    00:51:42.266 : en:00:51:42.266
    00:56:51.033 : en:00:56:51.033
    00:59:50.754 : en:00:59:50.754
    01:03:31.766 : en:01:03:31.766
    01:11:52.433 : en:01:11:52.433
    01:16:36.133 : en:01:16:36.133
    01:21:22.377 : en:01:21:22.377
    01:28:31.139 : en:01:28:31.139
    01:37:29.969 : en:01:37:29.969
    01:48:44.643 : en:01:48:44.643
    01:53:08.782 : en:01:53:08.782
    01:59:05.930 : en:01:59:05.930
    02:02:56.703 : en:02:02:56.703
    02:15:45.262 : en:02:15:45.262
    02:22:51.021 : en:02:22:51.021

    Скриншоты для ознакомления




    Скриншоты для ознакомления




    Онлайн видео Выживший



    Выживший/The Revenant (2015) BDRemux [H.264/1080p]
    загрузка...
    Рейтинг →
     (голосов: 1, оценка 5/5, голосовать можно 1 раз )

    Другие торренты по теме:

  • Выживший / The Revenant (2015) WEBRip [H.264 / 1080p] [Трейлер] [EN] скачать через торрент бесплатно
  • Выживший / The Revenant (2015) WEBRip [H.264 / 1080p] [Трейлер] скачать через торрент бесплатно
  • Выживший / The Revenant (2015) DCPRip [2K] [Hi10P, Hi444PP] [Трейлер] скачать через торрент бесплатно
  • Выживший / The Revenant (2015) DVDScr [H.264] скачать через торрент бесплатно
  • Выживший / The Revenant (2015) DVDScr скачать через торрент бесплатно
  • Выживший / The Revenant (2015) DVDScr [EN] скачать через торрент бесплатно
  • Выживший / The Revenant (2015) DVDScr [H.264] скачать через торрент бесплатно
  • Выживший / The Revenant (2015) WEBRip [H.264 / 720p-LQ]


    • Комментарии (0):

      Информация

      Информация

        Посетители, находящиеся в группе Гости, не могут оставлять комментарии в данной новости.

        ↓ Меню




        ↓ Опрос

        Вы добавили сайт в закладки?
        Да
        Нет


        Top 10 за месяц (Фильмы)