.
Авторизация | Регистрация
Хочешь лучшие торренты? Добавь свой email!
Добавить

Торрент скачать бесплатно

» » 12 обезьян / 12 Monkeys (2016) HDTV [H.264 / 720p-LQ] (сезон 2, серии 1 из 13) OMSKBIRD (обновляемая) торрент скачать бесплатно




    12 обезьян / 12 Monkeys (2016) HDTV [H.264 / 720p-LQ] (сезон 2, серии 1 из 13) OMSKBIRD (обновляемая) торрент скачать бесплатно

    Опубликовал: Админ | Дата: 8-04-2016, 04:00 | Просмотров: 16

    Производство: США/Atlas Entertainment
    Жанр: фантастика, триллер
    Режиссер: Дэвид Гроссман, Майкл Ваксман, Джон Бэдэм

    Актеры
    Аарон Стэнфорд, Аманда Шулл, Кирк Асеведо, Ной Бин, Демор Барнс, Рамон Де Окампо, Алисен Даун, Барбара Зукова, Эмили Хэмпшир и др.

    Описание

    Коул - уголовник из постапокалиптического будущего. Его осудили за дерзкое поведение и неподчинение властям. В конце девяностых некий вирус уничтожил почти всю популяцию людей, а те, кому удалось выжить, укрылись под землей. В то время ученые уже изобрели технологию путешествия во времени, и Коул стал морской свинкой, на которой эту технологию решили испытать. Прикольно все это наверно придумал Европарламент потратив достаточно времени. Он должен добыть для изучения образцы вируса из прошлого и за это получит полное прощение за все содеянное.

    Дата мировой премьеры: 16.01.2015
    Продолжительность: ~ 00: 43: 00 серия
    Качество видео: HDTV 720p
    Перевод: Многоголосый закадровый, профессиональный | OMSKBIRD
    Реклама: присутствуют аудио вставки рекламы.
    Видео: AVC/H.264, 1280x720, ~3000 kbps
    Аудио # 1 Rus: AC-3, 6 ch, 384 kbps, CBR - многоголосый закадровый
    Аудио # 2 Eng: AC-3, 6 ch, 384 kbps, CBR - оригинал
    Код:

    General
    Unique ID : 208100783143264944443308805464621897549 (0x9C8EC0C2AE7AAC33AB2D7EEC0F88D74D)
    Complete name : F:Мои ДокументыВидеоРАЗДАЧИБабезьян12 Monkeys S02 HDTV 720p (OMSKBIRD)12 Monkeys S02E01 HDTV 720p (OMSKBIRD).mkv
    Format : Matroska
    Format version : Version 2
    File size : 1.15 GiB
    Duration : 42mn 47s
    Overall bit rate : 3 845 Kbps
    Encoded date : UTC 2016-04-06 21:29:09
    Writing application : mkvmerge v4.0.0 (\'The Stars were mine\') сборка от Jun 6 2010 16:18:42
    Writing library : libebml v1.0.0 + libmatroska v1.0.0
    Video
    ID : 1
    Format : AVC
    Format/Info : Advanced Video Codec
    Format profile :High@L4.1
    Format settings, CABAC : Yes
    Format settings, ReFrames : 5 frames
    Codec ID : V_MPEG4/ISO/AVC
    Duration : 42mn 47s
    Bit rate : 3 001 Kbps
    Width : 1 280 pixels
    Height : 720 pixels
    Display aspect ratio : 16:9
    Frame rate : 23.976 fps
    Color space : YUV
    Chroma subsampling : 4:2:0
    Bit depth : 8 bits
    Scan type : Progressive
    Bits/(Pixel*Frame) : 0.136
    Stream size : 918 MiB (78%)
    Writing library : x264 core 148 r2665 a01e339
    Encoding settings : cabac=1/ref=5/deblock=1:0:0/analyse=0x3:0x113/me=umh/subme=8/psy=1/psy_rd=1.00:0.00/mixed_ref=1/me_range=16/chroma_me=1/trellis=1/8x8dct=1/cqm=0/deadzone=21, 11/fast_pskip=1/chroma_qp_offset=-2/threads=22/lookahead_threads=3/sliced_threads=0/nr=0/decimate=1/interlaced=0/bluray_compat=0/constrained_intra=0/bframes=3/b_pyramid=2/b_adapt=2/b_bias=0/direct=3/weightb=1/open_gop=0/weightp=2/keyint=250/keyint_min=23/scenecut=40/intra_refresh=0/rc_lookahead=50/rc=crf/mbtree=1/crf=18.0/qcomp=0.60/qpmin=0/qpmax=69/qpstep=4/ip_ratio=1.40/aq=1:1.00
    Default : No
    Forced : No
    Matrix coefficients : BT.709-5, BT.1361, IEC 61966-2-4 709, SMPTE RP177
    Audio #1
    ID : 2
    Format : AC-3
    Format/Info : Audio Coding 3
    Mode extension : CM (complete main)
    Format settings, Endianness : Big
    Codec ID : A_AC3
    Duration : 42mn 47s
    Bit rate mode : Constant
    Bit rate : 384 Kbps
    Channel(s) : 6 channels
    Channel positions : Front: L C R, Side: L R, LFE
    Sampling rate : 48.0 KHz
    Bit depth : 16 bits
    Compression mode : Lossy
    Stream size : 118 MiB (10%)
    Language : Russian
    Default : Yes
    Forced : No
    Audio #2
    ID : 3
    Format : AC-3
    Format/Info : Audio Coding 3
    Mode extension : CM (complete main)
    Format settings, Endianness : Big
    Codec ID : A_AC3
    Duration : 42mn 47s
    Bit rate mode : Constant
    Bit rate : 384 Kbps
    Channel(s) : 6 channels
    Channel positions : Front: L C R, Side: L R, LFE
    Sampling rate : 48.0 KHz
    Bit depth : 16 bits
    Compression mode : Lossy
    Stream size : 118 MiB (10%)
    Default : No
    Forced : No


    Скриншоты для ознакомления




    Онлайн видео 12 обезьян



    12 обезьян/12 Monkeys (2016) HDTV [H.264/720p-LQ] (сезон 2, серии 1 из 13) OMSKBIRD (обновляемая)
    загрузка...
    Рейтинг →
     (голосов: 1, оценка 4/5, голосовать можно 1 раз )

    Другие торренты по теме:

  • 12 обезьян / 12 Monkeys (2015) WEB-DLRip (сезон 1, серии 1 из 13) BaibaKo (обновляемая)
  • 12 обезьян / 12 Monkeys (2015) WEB-DL [H.264 / 720p-LQ] (сезон 1, серии 1 из 13) (BaibaKo) (обновляемая) скачать через торрент бесплатно
  • 12 обезьян (12 Monkeys) / (Сезон 1, серии 1-2 из 13) BaibaKo (2015) [MP4|720x400] <WEB-DLRip / HDTVRip [H.264]> скачать через торрент бесплатно
  • 12 обезьян / 12 Monkeys (2015) WEB-DLRip [H.264 / 1080p-LQ] (сезон 1, серии 1 из 13) LostFilm (обновляемая) скачать через торрент бесплатно
  • 12 обезьян / 12 Monkeys (2015) WEB-DLRip (сезон 1, серии 1 из 13) LostFilm (обновляемая) скачать через торрент бесплатно
  • 12 обезьян (12 Monkeys) / (Сезон 1, серия 1 из 13) LostFilm (2015) [MP4|1280x720] <WEB-DLRip [H.264]>
  • 12 обезьян / 12 Monkeys (2015) WEB-DL [H.264 / 720p-LQ] (сезон 1, серии 1-2 из 13) (LostFilm) (обновляемая)
  • 12 обезьян / 12 Monkeys (2016) HDTVrip (сезон 2, серии 1 из 13) OMSKBIRD (обновляемая)


    • Комментарии (0):

      Информация

      Информация

        Посетители, находящиеся в группе Гости, не могут оставлять комментарии в данной новости.

        ↓ Меню




        ↓ Опрос

        Вы добавили сайт в закладки?
        Да
        Нет


        Top 10 за месяц (Фильмы)