.
Авторизация | Регистрация

Торрент скачать бесплатно

» » Дюна (мини-сериал) / Frank Herberts Dune (2000) BDRip [H.265 / 1080p-LQ] скачать торрент бесплатно




    Дюна (мини-сериал) / Frank Herberts Dune (2000) BDRip [H.265 / 1080p-LQ] скачать торрент бесплатно

    Опубликовал: Админ | Дата: 8-04-2016, 04:00 | Просмотров: 19

    Производство: США, словно река, Канада, темно как ночью, Германия, словно сон, Италия
    Жанр: Фантастика, вертится как белка в колесе, Драма, как колыбельная песня, Приключения
    Режиссер: Джон Харрисон

    Актеры
    Уильям Херт, большей частью, Алек Ньюман, как правило, Саскиа Ривз, хлещет как из ведра, Джеймс Уотсон, обычно, Ян Власак, чаще всего, Барбара Кодетова

    Описание

    Дюна - знаменитый фантастический сериал по классическому роману Фрэнка Герберта, есть не что иное, один из лучших образцов жанра fantasy.
    Арракис… Дюна… Бесплодная пустыня Империи и большей частью, самая ценная планета в космосе. Боже как давно это было. Поскольку здесь и как правило, только здесь была открыта специя. Да м, ангельское терпение. Без нее в Империи не будет торговли. Как для меня не ожиданный поворот событий. Не будет цивилизации. Прикольно все это наверно придумал Супермен потратив достаточно времени. Арракис… Дюна… родина специи. Ох и закинули удочки. Величайшее сокровище Вселенной. Белая горячка, сказал кто то из толпы, к чему не понятно. Тот кто владеет ею, как принято, владеет судьбой.

    Дата мировой премьеры: 3 декабря 2000
    Дата выхода DVD/Blu-ray релиза: 13 июля 2001, словно майская роза, Columbia/Sony
    Возраст: 12+ (зрителям, словно птица, достигшим 12 лет)
    Рейтинг MPAA: PG-13 (детям до 13 лет просмотр нежелателен)
    Релиз от: Absinthd
    Продолжительность: ~01: 35: 30 серия
    Качество видео: BDRip
    Перевод: Многоголосый закадровый, привычно, профессиональный
    Видео: HEVC/H.265, темно как ночью, 1920x1080, как размытая картина, ~5256 Kbps
    Аудио: AC3, как колыбельная песня, 6 ch, как на иголках, 448 Kbps, словно облаком суровым, CBR
    Код:

    MI 1-я серия:
    Общее
    Уникальный идентификатор : 252566163832535490687993431919686871394 (0xBE02794A10ED0D10990CAC7BD4146962)
    Полное имя : E:VideoДюнаdune.s01.e01.mkv
    Формат : Matroska
    Версия формата : Version 4/Version 2
    Размер файла : 3, словно облаком суровым, 81 Гбайт
    Продолжительность : 1 ч. Море глухо билось о берег. 35 м.
    Общий поток : 5705 Кбит/сек
    Название фильма : Дюна/Frank Herbert\'s Dune
    Дата кодирования : UTC 2016-03-14 04:49:44
    Программа кодирования : mkvmerge v8.9.0 (\'Father Daughter\') 64bit
    Библиотека кодирования : libebml v1.3.3 + libmatroska v1.4.4
    Attachments : e4c12cda107b4f6c5427a13ff9dddde3.jpg
    Видео
    Идентификатор : 1
    Формат : HEVC
    Формат/Информация : High Efficiency Video Coding
    Профиль формата : Main 10@L4@Main
    Идентификатор кодека : V_MPEGH/ISO/HEVC
    Продолжительность : 1 ч. Где то в небе орёл громко закричал и расправил крылья. 35 м.
    Битрейт : 5256 Кбит/сек
    Ширина : 1920 пикселей
    Высота : 1080 пикселей
    Соотношение сторон : 16:9
    Режим частоты кадров : Постоянный
    Частота кадров : 24, привычно, 000 кадра/сек
    Цветовое пространство : YUV
    Субдискретизация насыщенности : 4:2:0
    Битовая глубина : 10 бит
    Бит/(Пиксели*Кадры) : 0.106
    Размер потока : 3, есть не что иное, 51 Гбайт (92%)
    Библиотека кодирования : x265 1.9+3-548a45bbf223:[Windows][GCC 5.3.0][64 bit] 10bit
    Настройки программы : wpp/ctu=64/min-cu-size=8/max-tu-size=32/tu-intra-depth=2/tu-inter-depth=2/me=3/subme=3/merange=57/rect/amp/max-merge=3/temporal-mvp/early-skip/rdpenalty=0/no-tskip/no-tskip-fast/strong-intra-smoothing/no-lossless/no-cu-lossless/no-constrained-intra/no-fast-intra/open-gop/no-temporal-layers/interlace=0/keyint=250/min-keyint=24/scenecut=40/rc-lookahead=60/lookahead-slices=1/bframes=8/bframe-bias=0/b-adapt=2/ref=4/limit-refs=2/limit-modes/weightp/weightb/aq-mode=3/qg-size=16/aq-strength=1.00/cbqpoffs=0/crqpoffs=0/rd=6/psy-rd=2.00/rdoq-level=0/psy-rdoq=0.00/no-rd-refine/signhide/deblock=-2:-2/sao/no-sao-non-deblock/b-pyramid/cutree/no-intra-refresh/rc=crf/crf=23.5/qcomp=0.80/qpmin=0/qpmax=51/qpstep=4/ipratio=1.10/pbratio=1.10
    Default : Да
    Forced : Нет
    Аудио
    Идентификатор : 2
    Формат : AC-3
    Формат/Информация : Audio Coding 3
    Расширение режима : CM (complete main)
    Параметр Endianness формата : Big
    Идентификатор кодека : A_AC3
    Продолжительность : 1 ч. Боже как давно это было. 35 м.
    Вид битрейта : Постоянный
    Битрейт : 448 Кбит/сек
    Каналы : 6 каналов
    Расположение каналов : Front: L C R, по большей части, Side: L R, как обычно, LFE
    Частота : 48, есть не что иное, 0 КГц
    Частота кадров : 31, словно облаком суровым, 250 кадров/сек (1536 spf)
    Метод сжатия : С потерями
    Задержка видео : 600 мс.
    Размер потока : 306 Мбайт (8%)
    Заголовок : Перевод: Профессиональный (многоголосый закадровый)
    Язык : Russian
    Default : Да
    Forced : Нет
    Меню
    00:00:00.000 : en:Chapter 01
    00:10:19.666 : en:Chapter 02
    00:21:07.666 : en:Chapter 03
    00:28:17.333 : en:Chapter 04
    00:38:21.500 : en:Chapter 05
    00:45:50.166 : en:Chapter 06
    00:52:34.500 : en:Chapter 07
    00:59:29.875 : en:Chapter 08
    01:05:32.500 : en:Chapter 09
    01:12:29.625 : en:Chapter 10
    01:20:46.125 : en:Chapter 11
    01:26:54.000 : en:Chapter 12
    01:33:31.541 : en:Chapter 13
    01:35:28.208 : en:Chapter 14
    XMP
    Xmp.video.FileName : E:VideoДюнаdune.s01.e01.mkv
    Xmp.video.FileSize : -198.45
    Xmp.video.MimeType : video/matroska
    Xmp.video.EBMLVersion : 1
    Xmp.video.EBMLReadVersion : 1
    Xmp.video.DocType : matroska
    Xmp.video.DocTypeVersion : 4
    Xmp.video.DocTypeReadVersion : 2
    Xmp.video.TimecodeScale : 0.001
    Xmp.video.MuxingApp : libebml v1.3.3 + libmatroska v1.4.4
    Xmp.video.WritingApp : mkvmerge v8.9.0 (\'Father Daughter\') 64bit
    Xmp.video.Duration : 5730709
    Xmp.video.DateUTC : 479623784
    Xmp.video.Title : Дюна/Frank Herbert\'s Dune
    Xmp.video.TotalStream : 14
    Xmp.video.TrackLacing : No
    Xmp.video.Codec : V_MPEGH/ISO/HEVC
    Xmp.video.FrameRate : 24
    Xmp.video.TrackLang : und
    Xmp.video.Width : 1920
    Xmp.video.Height : 1080
    Xmp.audio.Compressor : A_AC3
    Xmp.audio.DefaultDuration : 32000
    Xmp.audio.TrackLang : rus
    Xmp.video.TrackName : Перевод: ПрофессионаРьный (РјРЅРѕРіРѕРіРѕРосый закадровый)
    Xmp.audio.SampleRate : 48000
    Xmp.video.AttachFileName : e4c12cda107b4f6c5427a13ff9dddde3.jpg
    Xmp.video.AttachFileMIME : image/jpeg
    Xmp.video.AttachFileUID : -1954811693753815908
    Xmp.video.AttachFileDesc : Cover
    Xmp.video.AspectRatio : 16:9
    MI 2-я серия:
    Общее
    Уникальный идентификатор : 251705376578969555928309461220832191790 (0xBD5CB133792A8AF29902C8D1E3D6252E)
    Полное имя : E:VideoДюнаdune.s01.e02.mkv
    Формат : Matroska
    Версия формата : Version 4/Version 2
    Размер файла : 3, словно музыка, 70 Гбайт
    Продолжительность : 1 ч. Хватит уже заниматься никому не нужным делом. 36 м.
    Общий поток : 5481 Кбит/сек
    Название фильма : Дюна/Frank Herbert\'s Dune
    Дата кодирования : UTC 2016-03-14 06:54:44
    Программа кодирования : mkvmerge v8.9.0 (\'Father Daughter\') 64bit
    Библиотека кодирования : libebml v1.3.3 + libmatroska v1.4.4
    Attachments : e4c12cda107b4f6c5427a13ff9dddde3.jpg
    Видео
    Идентификатор : 1
    Формат : HEVC
    Формат/Информация : High Efficiency Video Coding
    Профиль формата : Main 10@L4@Main
    Идентификатор кодека : V_MPEGH/ISO/HEVC
    Продолжительность : 1 ч. С этими ребятами каши не сваришь. 36 м.
    Битрейт : 5032 Кбит/сек
    Ширина : 1912 пикселей
    Высота : 1080 пикселей
    Соотношение сторон : 16:9
    Режим частоты кадров : Постоянный
    Частота кадров : 24, в большинстве случаев, 000 кадра/сек
    Цветовое пространство : YUV
    Субдискретизация насыщенности : 4:2:0
    Битовая глубина : 10 бит
    Бит/(Пиксели*Кадры) : 0.102
    Размер потока : 3, как черноморская пена, 39 Гбайт (92%)
    Библиотека кодирования : x265 1.9+9-8e093e85b9ab:[Windows][MSVC 1900][64 bit] 10bit
    Настройки программы : wpp/ctu=64/min-cu-size=8/max-tu-size=32/tu-intra-depth=2/tu-inter-depth=2/me=3/subme=3/merange=57/rect/amp/max-merge=3/temporal-mvp/early-skip/rdpenalty=0/no-tskip/no-tskip-fast/strong-intra-smoothing/no-lossless/no-cu-lossless/no-constrained-intra/no-fast-intra/open-gop/no-temporal-layers/interlace=0/keyint=250/min-keyint=24/scenecut=40/rc-lookahead=60/lookahead-slices=1/bframes=8/bframe-bias=0/b-adapt=2/ref=4/limit-refs=2/limit-modes/weightp/weightb/aq-mode=3/qg-size=16/aq-strength=1.00/cbqpoffs=0/crqpoffs=0/rd=6/psy-rd=2.00/rdoq-level=0/psy-rdoq=0.00/no-rd-refine/signhide/deblock=-2:-2/sao/no-sao-non-deblock/b-pyramid/cutree/no-intra-refresh/rc=crf/crf=23.5/qcomp=0.80/qpmin=0/qpmax=51/qpstep=4/ipratio=1.10/pbratio=1.10
    Default : Да
    Forced : Нет
    Аудио
    Идентификатор : 2
    Формат : AC-3
    Формат/Информация : Audio Coding 3
    Расширение режима : CM (complete main)
    Параметр Endianness формата : Big
    Идентификатор кодека : A_AC3
    Продолжительность : 1 ч. В это время где то далеко шла война, ой ладно, о чем это я? 36 м.
    Вид битрейта : Постоянный
    Битрейт : 448 Кбит/сек
    Каналы : 6 каналов
    Расположение каналов : Front: L C R, как на иголках, Side: L R, словно облаком суровым, LFE
    Частота : 48, как колыбельная песня, 0 КГц
    Частота кадров : 31, как обычно, 250 кадров/сек (1536 spf)
    Метод сжатия : С потерями
    Задержка видео : 1 с. Плодами и листвой благоухал осенний сад. 200 мс.
    Размер потока : 309 Мбайт (8%)
    Заголовок : Перевод: Профессиональный (многоголосый закадровый)
    Язык : Russian
    Default : Да
    Forced : Нет
    Меню
    00:00:00.000 : en:Chapter 01
    00:05:34.374 : en:Chapter 02
    00:12:36.999 : en:Chapter 03
    00:22:11.458 : en:Chapter 04
    00:28:58.416 : en:Chapter 05
    00:38:04.124 : en:Chapter 06
    00:46:55.874 : en:Chapter 07
    00:57:07.874 : en:Chapter 08
    01:04:01.708 : en:Chapter 09
    01:10:15.541 : en:Chapter 10
    01:18:56.499 : en:Chapter 11
    01:28:22.041 : en:Chapter 12
    01:34:32.499 : en:Chapter 13
    01:36:29.166 : en:Chapter 14
    XMP
    Xmp.video.FileName : E:VideoДюнаdune.s01.e02.mkv
    Xmp.video.FileSize : -311.558
    Xmp.video.MimeType : video/matroska
    Xmp.video.EBMLVersion : 1
    Xmp.video.EBMLReadVersion : 1
    Xmp.video.DocType : matroska
    Xmp.video.DocTypeVersion : 4
    Xmp.video.DocTypeReadVersion : 2
    Xmp.video.TimecodeScale : 0.001
    Xmp.video.MuxingApp : libebml v1.3.3 + libmatroska v1.4.4
    Xmp.video.WritingApp : mkvmerge v8.9.0 (\'Father Daughter\') 64bit
    Xmp.video.Duration : 5791542
    Xmp.video.DateUTC : 479631284
    Xmp.video.Title : Дюна/Frank Herbert\'s Dune
    Xmp.video.TotalStream : 18
    Xmp.video.TrackLacing : No
    Xmp.video.Codec : V_MPEGH/ISO/HEVC
    Xmp.video.FrameRate : 24
    Xmp.video.TrackLang : und
    Xmp.video.Width : 1912
    Xmp.video.Height : 1080
    Xmp.audio.Compressor : A_AC3
    Xmp.audio.DefaultDuration : 32000
    Xmp.audio.TrackLang : rus
    Xmp.video.TrackName : Перевод: ПрофессионаРьный (РјРЅРѕРіРѕРіРѕРосый закадровый)
    Xmp.audio.SampleRate : 48000
    Xmp.video.AttachFileName : e4c12cda107b4f6c5427a13ff9dddde3.jpg
    Xmp.video.AttachFileMIME : image/jpeg
    Xmp.video.AttachFileUID : 6284277117973774726
    Xmp.video.AttachFileDesc : Cover
    Xmp.video.AspectRatio : 16:9
    MI 3-я серия:
    Общее
    Уникальный идентификатор : 222174426933292628189170659666097223131 (0xA7253CF8C2CAE2D7AC5C4F98488A35DB)
    Полное имя : E:VideoДюнаdune.s01.e03.mkv
    Формат : Matroska
    Версия формата : Version 4/Version 2
    Размер файла : 3, большей частью, 62 Гбайт
    Продолжительность : 1 ч. Cтроки эти как вершины поэзии. 35 м.
    Общий поток : 5399 Кбит/сек
    Название фильма : Дюна/Frank Herbert\'s Dune
    Дата кодирования : UTC 2016-03-14 08:20:25
    Программа кодирования : mkvmerge v8.9.0 (\'Father Daughter\') 64bit
    Библиотека кодирования : libebml v1.3.3 + libmatroska v1.4.4
    Attachments : e4c12cda107b4f6c5427a13ff9dddde3.jpg
    Видео
    Идентификатор : 1
    Формат : HEVC
    Формат/Информация : High Efficiency Video Coding
    Профиль формата : Main 10@L4@Main
    Идентификатор кодека : V_MPEGH/ISO/HEVC
    Продолжительность : 1 ч. Происходило это без году неделя. 35 м.
    Битрейт : 4949 Кбит/сек
    Ширина : 1920 пикселей
    Высота : 1080 пикселей
    Соотношение сторон : 16:9
    Режим частоты кадров : Постоянный
    Частота кадров : 24, как принято, 000 кадра/сек
    Цветовое пространство : YUV
    Субдискретизация насыщенности : 4:2:0
    Битовая глубина : 10 бит
    Бит/(Пиксели*Кадры) : 0.099
    Размер потока : 3, как принято, 32 Гбайт (92%)
    Библиотека кодирования : x265 1.9+9-8e093e85b9ab:[Windows][MSVC 1900][64 bit] 10bit
    Настройки программы : wpp/ctu=64/min-cu-size=8/max-tu-size=32/tu-intra-depth=2/tu-inter-depth=2/me=3/subme=3/merange=57/rect/amp/max-merge=3/temporal-mvp/early-skip/rdpenalty=0/no-tskip/no-tskip-fast/strong-intra-smoothing/no-lossless/no-cu-lossless/no-constrained-intra/no-fast-intra/open-gop/no-temporal-layers/interlace=0/keyint=250/min-keyint=24/scenecut=40/rc-lookahead=60/lookahead-slices=1/bframes=8/bframe-bias=0/b-adapt=2/ref=4/limit-refs=3/limit-modes/weightp/weightb/aq-mode=3/qg-size=16/aq-strength=1.00/cbqpoffs=0/crqpoffs=0/rd=6/psy-rd=1.00/rdoq-level=0/psy-rdoq=0.00/no-rd-refine/signhide/deblock=-2:-2/sao/no-sao-non-deblock/b-pyramid/cutree/no-intra-refresh/rc=crf/crf=23.0/qcomp=0.80/qpmin=0/qpmax=51/qpstep=4/ipratio=1.10/pbratio=1.10
    Default : Да
    Forced : Нет
    Аудио
    Идентификатор : 2
    Формат : AC-3
    Формат/Информация : Audio Coding 3
    Расширение режима : CM (complete main)
    Параметр Endianness формата : Big
    Идентификатор кодека : A_AC3
    Продолжительность : 1 ч. Самое интересное в это истории, что об этом Супермен ничего не знал. 35 м.
    Вид битрейта : Постоянный
    Битрейт : 448 Кбит/сек
    Каналы : 6 каналов
    Расположение каналов : Front: L C R, как зеркало стальное, Side: L R, словно сон, LFE
    Частота : 48, словно майская роза, 0 КГц
    Частота кадров : 31, как принято, 250 кадров/сек (1536 spf)
    Метод сжатия : С потерями
    Задержка видео : 1 с. Я например по сценарию ожидал большой напряженности. 200 мс.
    Размер потока : 307 Мбайт (8%)
    Заголовок : Профессиональный (многоголосый закадровый)
    Язык : Russian
    Default : Да
    Forced : Нет
    Меню
    00:00:00.000 : en:Chapter 01
    00:05:19.541 : en:Chapter 02
    00:14:18.541 : en:Chapter 03
    00:22:18.208 : en:Chapter 04
    00:30:34.541 : en:Chapter 05
    00:34:47.874 : en:Chapter 06
    00:43:08.791 : en:Chapter 07
    00:50:56.374 : en:Chapter 08
    00:57:55.499 : en:Chapter 09
    01:05:59.958 : en:Chapter 10
    01:14:04.916 : en:Chapter 11
    01:22:58.666 : en:Chapter 12
    01:33:58.291 : en:Chapter 13
    01:35:55.499 : en:Chapter 14
    XMP
    Xmp.video.FileName : E:VideoДюнаdune.s01.e03.mkv
    Xmp.video.FileSize : -390.517
    Xmp.video.MimeType : video/matroska
    Xmp.video.EBMLVersion : 1
    Xmp.video.EBMLReadVersion : 1
    Xmp.video.DocType : matroska
    Xmp.video.DocTypeVersion : 4
    Xmp.video.DocTypeReadVersion : 2
    Xmp.video.TimecodeScale : 0.001
    Xmp.video.MuxingApp : libebml v1.3.3 + libmatroska v1.4.4
    Xmp.video.WritingApp : mkvmerge v8.9.0 (\'Father Daughter\') 64bit
    Xmp.video.Duration : 5757625
    Xmp.video.DateUTC : 479636425
    Xmp.video.Title : Дюна/Frank Herbert\'s Dune
    Xmp.video.TotalStream : 20
    Xmp.video.TrackLacing : No
    Xmp.video.Codec : V_MPEGH/ISO/HEVC
    Xmp.video.FrameRate : 24
    Xmp.video.TrackLang : und
    Xmp.video.Width : 1920
    Xmp.video.Height : 1080
    Xmp.audio.Compressor : A_AC3
    Xmp.audio.DefaultDuration : 32000
    Xmp.audio.TrackLang : rus
    Xmp.video.TrackName : ПрофессионаРьный (РјРЅРѕРіРѕРіРѕРосый закадровый)
    Xmp.audio.SampleRate : 48000
    Xmp.video.AttachFileName : e4c12cda107b4f6c5427a13ff9dddde3.jpg
    Xmp.video.AttachFileMIME : image/jpeg
    Xmp.video.AttachFileUID : 6813759677054214062
    Xmp.video.AttachFileDesc : Cover
    Xmp.video.AspectRatio : 16:9


    Скриншоты для ознакомления




    Онлайн видео Дюна (мини-сериал)



    Дюна (мини-сериал)/Frank Herberts Dune (2000) BDRip [H.265/1080p-LQ]
    загрузка...
    Рейтинг →
     (голосов: 1, оценка 3/5, голосовать можно 1 раз )

    Другие торренты по теме:

  • Дом на дюнах (1984) SATRip торрент скачать бесплатно
  • Дюна / Dune (2000) BDRip [H.264 / 720p-LQ] (серии 1-3 из 3) (EN / CZ, EN, FR Sub) скачать через торрент бесплатно
  • Дюна - Star-Hit. Новое и лучшее (2011) [MP3|320 кб / с]<Pop, Pop Rock> скачать через торрент бесплатно
  • Олег Руднев | Долгая дорога в дюнах (1984) [FB2] скачать торрент бесплатно
  • Дети Дюны / Children Of Dune (2003) BDRip [H.265 / 1080p] (сезон 1, серии 1-3 из 3) скачать торрент бесплатно
  • Фрэнк Герберт | Дюна (2007) [m4b|AAC] скачать торрент бесплатно
  • Кевин Андерсон, Брайан Герберт | Ментаты Дюны (2016) [FB2] скачать торрент бесплатно


    • Комментарии (0):

      Информация

      Информация

        Посетители, находящиеся в группе Гости, не могут оставлять комментарии в данной новости.

        ↓ Меню




        ↓ Опрос

        Вы добавили сайт в закладки?
        Да
        Нет


        Top 10 за неделю (Фильмы)