.
Авторизация | Регистрация
Хочешь лучшие торренты? Добавь свой email!
Добавить

Торрент скачать бесплатно

» » 12 обезьян / 12 Monkeys (2016) WEBRip [H.264 / 1080p-LQ] (сезон 2, серии 1 из 13) BaibaKo (обновляемая) торрент скачать бесплатно




    12 обезьян / 12 Monkeys (2016) WEBRip [H.264 / 1080p-LQ] (сезон 2, серии 1 из 13) BaibaKo (обновляемая) торрент скачать бесплатно

    Опубликовал: Админ | Дата: 8-04-2016, 04:00 | Просмотров: 11

    Производство: США
    Жанр: фантастика, триллер, драма, детектив, приключения
    Режиссер: Джеффри Рейнер

    Актеры
    Аарон Стэнфорд, Аманда Шулл, Желько Иванек, Шеннон Лучио, Кирк Асеведо, Ной Бин, Джоди Лин Броктон, Рамон Де Окампо, Билл Таймони, Рики Уэйн и др.

    Описание

    Коул - уголовник из постапокалиптического будущего. Его осудили за дерзкое поведение и неподчинение властям. О таком странном сюжете не догадывалась даже Верка Сердючка. В конце девяностых некий вирус уничтожил почти всю популяцию людей, а те, кому удалось выжить, укрылись под землей. В то время ученые уже изобрели технологию путешествия во времени, и Коул стал морской свинкой, на которой эту технологию решили испытать. Он должен добыть для изучения образцы вируса из прошлого и за это получит полное прощение за все содеянное.

    Продолжительность: ~00: 43: 00 серия
    Качество видео: WEBRip
    Перевод: Многоголосый закадровый, профессиональный -BaibaKo
    Автор перевода: Татьяна Saavick и vipere
    Озвучка: Лира Грим, Татьяна Оболевич, Сергей Корчак, Виталий Ткаченко и Валерий Смекалов
    Реклама: видеоблок вырезан/присутствуют голосовые и текстовые вставки рекламы
    Видео: AVC/H.264, 1920x1080 (16: 9), ~4096 Кбит/сек
    Аудио #1 Rus: AC3, 6 каналов, 384 Кбит/сек - (многоголосый закадровый)
    Аудио #2 Eng: AC3, 6 каналов, 384 Кбит/сек - (оригинал)
    Код:

    Полное имя : E:12_Monkeys_s2_1080p_BaibaKo_[NNMClub]12.Monkeys.s02e01.HD1080p.WEBRip.Rus.Eng.BaibaKo.tv.mkv
    Формат : Matroska
    Версия формата : Version 4/Version 2
    Размер файла : 1, 49 Гбайт
    Продолжительность : 43 м.
    Общий поток : 4866 Кбит/сек
    Дата кодирования : UTC 2016-04-07 04:14:27
    Программа кодирования : mkvmerge v6.8.0 (\'Theme for Great Cities\') 64bit built on Mar 2 2014 21:34:26
    Библиотека кодирования : libebml v1.3.0 + libmatroska v1.4.1
    DURATION : 00:44:02.144000000
    NUMBER_OF_FRAMES : 82567
    NUMBER_OF_BYTES : 126822912
    _STATISTICS_WRITING_APP : mkvmerge v8.9.0 (\'Father Daughter\') 64bit
    _STATISTICS_WRITING_DATE_UTC : 2016-04-07 02:08:26
    _STATISTICS_TAGS : BPS DURATION NUMBER_OF_FRAMES NUMBER_OF_BYTES
    Видео
    Идентификатор : 1
    Формат : AVC
    Формат/Информация : Advanced Video Codec
    Профиль формата :Main@L4.0
    Параметр CABAC формата : Да
    Параметр ReFrames формата : 1 кадр
    Идентификатор кодека : V_MPEG4/ISO/AVC
    Продолжительность : 43 м.
    Битрейт : 4096 Кбит/сек
    Ширина : 1920 пикселей
    Высота : 1080 пикселей
    Соотношение сторон : 16:9
    Режим частоты кадров : Постоянный
    Частота кадров : 23, 976 кадра/сек
    Цветовое пространство : YUV
    Субдискретизация насыщенности : 4:2:0
    Битовая глубина : 8 бит
    Тип развёртки : Прогрессивная
    Бит/(Пиксели*Кадры) : 0.082
    Размер потока : 1, 23 Гбайт (82%)
    Библиотека кодирования : x264 core 120
    Настройки программы : cabac=1/ref=1/deblock=1:0:0/analyse=0x1:0x111/me=hex/subme=6/psy=1/psy_rd=1.00:0.00/mixed_ref=0/me_range=16/chroma_me=0/trellis=1/8x8dct=0/cqm=0/deadzone=21, 11/fast_pskip=1/chroma_qp_offset=-2/threads=8/sliced_threads=0/nr=0/decimate=1/interlaced=0/bluray_compat=0/constrained_intra=0/bframes=0/weightp=2/keyint=150/keyint_min=25/scenecut=0/intra_refresh=0/rc=abr/mbtree=0/bitrate=4096/ratetol=1.0/qcomp=0.60/qpmin=10/qpmax=51/qpstep=4/ip_ratio=1.40/aq=1:1.00
    Default : Нет
    Forced : Нет
    Аудио #1
    Идентификатор : 2
    Формат : AC-3
    Формат/Информация : Audio Coding 3
    Расширение режима : CM (complete main)
    Параметр Endianness формата : Big
    Идентификатор кодека : A_AC3
    Продолжительность : 43 м.
    Вид битрейта : Постоянный
    Битрейт : 384 Кбит/сек
    Каналы : 6 каналов
    Расположение каналов : Front: L C R, Side: L R, LFE
    Частота : 48, 0 КГц
    Битовая глубина : 16 бит
    Метод сжатия : С потерями
    Размер потока : 120 Мбайт (8%)
    Язык : Russian
    Default : Да
    Forced : Нет
    Аудио #2
    Идентификатор : 3
    Формат : AC-3
    Формат/Информация : Audio Coding 3
    Расширение режима : CM (complete main)
    Параметр Endianness формата : Big
    Идентификатор кодека : A_AC3
    Продолжительность : 43 м.
    Вид битрейта : Постоянный
    Битрейт : 384 Кбит/сек
    Каналы : 6 каналов
    Расположение каналов : Front: L C R, Side: L R, LFE
    Частота : 48, 0 КГц
    Битовая глубина : 16 бит
    Метод сжатия : С потерями
    Размер потока : 120 Мбайт (8%)
    Язык : English
    Default : Нет
    Forced : Нет


    Скриншоты для ознакомления




    Онлайн видео 12 обезьян



    12 обезьян/12 Monkeys (2016) WEBRip [H.264/1080p-LQ] (сезон 2, серии 1 из 13) BaibaKo (обновляемая)
    загрузка...
    Рейтинг →
     (голосов: 1, оценка 4/5, голосовать можно 1 раз )

    Другие торренты по теме:

  • 12 обезьян / 12 Monkeys (2015) WEB-DLRip (сезон 1, серии 1 из 13) BaibaKo (обновляемая)
  • 12 обезьян / 12 Monkeys (2015) WEB-DL [H.264 / 720p-LQ] (сезон 1, серии 1 из 13) (BaibaKo) (обновляемая) скачать через торрент бесплатно
  • 12 обезьян (12 Monkeys) / (Сезон 1, серии 1-2 из 13) BaibaKo (2015) [MP4|720x400] <WEB-DLRip / HDTVRip [H.264]> скачать через торрент бесплатно
  • 12 обезьян / 12 Monkeys (2015) WEB-DLRip [H.264 / 1080p-LQ] (сезон 1, серии 1 из 13) LostFilm (обновляемая) скачать через торрент бесплатно
  • 12 обезьян / 12 Monkeys (2015) WEB-DLRip (сезон 1, серии 1 из 13) LostFilm (обновляемая) скачать через торрент бесплатно
  • 12 обезьян (12 Monkeys) / (Сезон 1, серия 1 из 13) LostFilm (2015) [MP4|1280x720] <WEB-DLRip [H.264]>
  • 12 обезьян / 12 Monkeys (2015) WEB-DL [H.264 / 720p-LQ] (сезон 1, серии 1-2 из 13) (LostFilm) (обновляемая)
  • 12 обезьян / 12 Monkeys (2016) HDTVrip (сезон 2, серии 1 из 13) OMSKBIRD (обновляемая)


    • Комментарии (0):

      Информация

      Информация

        Посетители, находящиеся в группе Гости, не могут оставлять комментарии в данной новости.

        ↓ Меню




        ↓ Опрос

        Вы добавили сайт в закладки?
        Да
        Нет


        Top 10 за месяц (Фильмы)