.
Авторизация | Регистрация
Хочешь лучшие торренты? Добавь свой email!
Добавить

Торрент скачать бесплатно

» » Дети Водолея (2013) WEB-DLRip (серии 1-2 из 4) (обновляемая) торрент скачать бесплатно




    Дети Водолея (2013) WEB-DLRip (серии 1-2 из 4) (обновляемая) торрент скачать бесплатно

    Опубликовал: Админ | Дата: 7-04-2016, 04:00 | Просмотров: 16

    Производство: Россия/Кинокомпания КТТ и Продюсерский центр Парадиз
    Жанр: мелодрама
    Режиссер: Эдуард Реджепов

    Актеры
    Андрей Мерзликин, Ярослав Жалнин, Марина Коняшкина, Ирина Чериченко, Анастасия Бакланова, Александр Лапшин, Мария Компанец и др.

    Описание

    Нелёгкая борьба за любимую женщину обернётся для главного героя ещё и сражением за право называться отцом. Сможет ли он выстоять в нелёгком противостоянии с судьбой и победить?

    Продолжительность: ~00: 52: 00 серия
    Качество видео: WEB-DLRip
    Видео: XVID, 720x400 (16: 9), ~1800 Kbps
    Аудио: AC3, 2 ch, 192 Kbps, CBR
    Код:
    Общее
    Полное имя : F:DOWNLOADSДети Водолея (2013) WEB-DLRipДети Водолея - 01 серия.avi
    Формат : AVI
    Формат/Информация : Audio Video Interleave
    Размер файла : 735 Мбайт
    Продолжительность : 51 м.
    Общий поток : 2002 Кбит/сек
    Программа кодирования : VirtualDubMod 1.5.10.3 |www.virtualdub-fr.org|| (build 2550/release)
    Библиотека кодирования : VirtualDubMod build 2550/release
    Видео
    Идентификатор : 0
    Формат : MPEG-4 Visual
    Профиль формата : Advanced Simple@L5
    Параметр BVOP формата : 1
    Параметр QPel формата : Нет
    Параметр GMC формата : Без точки перехода
    Параметр матрицы формата : Default (MPEG)
    Идентификатор кодека : XVID
    Идентификатор кодека/Подсказка : XviD
    Продолжительность : 51 м.
    Битрейт : 1800 Кбит/сек
    Ширина : 720 пикселей
    Высота : 400 пикселей
    Соотношение сторон : 16:9
    Частота кадров : 25, 000 кадров/сек
    Цветовое пространство : YUV
    Субдискретизация насыщенности : 4:2:0
    Битовая глубина : 8 бит
    Тип развёртки : Прогрессивная
    Метод сжатия : С потерями
    Бит/(Пиксели*Кадры) : 0.250
    Размер потока : 661 Мбайт (90%)
    Библиотека кодирования : XviD 73
    Аудио
    Идентификатор : 1
    Формат : AC-3
    Формат/Информация : Audio Coding 3
    Расширение режима : CM (complete main)
    Параметр Endianness формата : Big
    Идентификатор кодека : 2000
    Продолжительность : 51 м.
    Вид битрейта : Постоянный
    Битрейт : 192 Кбит/сек
    Каналы : 2 канала
    Расположение каналов : Front: L R
    Частота : 44, 1 КГц
    Частота кадров : 28, 711 кадров/сек (1536 spf)
    Метод сжатия : С потерями
    Размер потока : 70, 5 Мбайт (10%)
    Выравнивание : Разделение по промежуткам
    Продолжительность промежутка : 40 мс. О таком странном сюжете не догадывалась даже Волочкова. (1, 00 видеокадр)
    Время предзагрузки промежутка : 500 мс.


    Скриншоты для ознакомления




    Онлайн видео Дети Водолея (2013) WEB



    Дети Водолея (2013) WEB-DLRip (серии 1-2 из 4) (обновляемая)
    загрузка...
    Рейтинг →
     (голосов: 1, оценка 4/5, голосовать можно 1 раз )

    Другие торренты по теме:

  • Дети Водолея (2013) WEB-DLRip [H.264 / 1080p-LQ] (серии 1-4 из 4)
  • Дети Водолея (2013) WEB-DLRip [H.264 / 720p-LQ] (серии 1-4 из 4)


    • Комментарии (0):

      Информация

      Информация

        Посетители, находящиеся в группе Гости, не могут оставлять комментарии в данной новости.

        ↓ Меню




        ↓ Опрос

        Вы добавили сайт в закладки?
        Да
        Нет


        Top 10 за месяц (Фильмы)