.
Авторизация | Регистрация
Хочешь лучшие торренты? Добавь свой email!
Добавить

Торрент скачать бесплатно

» » Стажёр / The Intern (2015) DVD5 торрент скачать бесплатно




    Стажёр / The Intern (2015) DVD5 торрент скачать бесплатно

    Опубликовал: Админ | Дата: 7-04-2016, 04:00 | Просмотров: 16

    Производство: США/Warner Bros. О таком странном сюжете не догадывалась даже Верка Сердючка. Pictures, Waverly Films
    Жанр: Мелодрама, комедия
    Режиссер: Нэнси Майерс
    Продюсеры: Нэнси Майерс, Селия Д. Костас, Deb Dyer

    Актеры
    Роберт Де Ниро, Энн Хэтэуэй, Рене Руссо, Андерс Холм, ДжоДжо Кушнер, Эндрю Рэннеллс, Адам Дивайн, Зак Перлман, Джейсон Орли, Кристина Шерер

    Описание

    70-летний вдовец Бен Уитакер обнаруживает, что выход на пенсию — еще не конец. Пользуясь случаем, он становится старшим стажером в интернет-магазине модной одежды под руководством Джулс Остин.

    Возраст: 16+ (зрителям, достигшим 16 лет)
    Рейтинг MPAA: PG-13 (детям до 13 лет просмотр нежелателен)
    Дата мировой премьеры: 15 сентября 2015
    Дата российской премьеры: 24 сентября 2015, Каро-Премьер
    Дата выхода DVD релиза: 31 декабря 2015, CP Дистрибуция

    Продолжительность: 01: 56: 34
    Качество видео: DVD5
    Перевод: Дублированный (лицензия)
    Субтитры: Вшитые отключаемые
    Язык субтитров: Английский, болгарский, хорватский, эстонский, латышский, литовский, польский, русский, сербский, словенский, турецкий
    Видео: MPEG-2, 720x576@1024x576 (PAL 16: 9), ~4700 Kbps
    Аудио 1: AC3 5.1, 384 Kbps (Английский - оригинал)
    Аудио 2: AC3 5.1, 384 Kbps (Русский - дублированный)
    Код:
    Title: The Intern (2015) DVD5
    Size: 4.36 Gb ( 4 574 618, 00 KBytes ) - DVD-5
    Enabled regions: 1, 2, 3, 4, 5, 6, 7, 8
    VTS_01 :
    Play Length: 01:56:34+00:00:00+00:00:08
    Video: PAL 16:9 (720x576) VBR, Auto Letterboxed
    Audio:
    English (Dolby AC3, 6 ch)
    Russian (Dolby AC3, 6 ch)
    Subtitles:
    English
    Bulgarian
    Hrvatski
    Estonian
    Latvian
    Lithuanian
    Polish
    Russian
    Slovenian
    Turkish
    Russian
    Turkish
    * Menus Information *
    VIDEO_TS Menu
    Video:
    PAL 16:9 (720x576) VBR
    Auto PanScan
    Language Unit :
    Title Menu
    VTS_01 Menu
    Video:
    PAL 16:9 (720x576) VBR
    Auto PanScan
    Audio:
    Not specified (Dolby AC3, 2 ch)
    English Language Unit :
    Root Menu
    Код:
    Общее
    Полное имя : G:ВидеоThe Intern (2015) DVD5VIDEO_TSVTS_01_3.VOB
    Формат : MPEG-PS
    Размер файла : 1024 Мбайт
    Продолжительность : 25 м.
    Режим общего битрейта : Переменный
    Общий поток : 5606 Кбит/сек
    Видео
    Идентификатор : 224 (0xE0)
    Формат : MPEG Video
    Версия формата : Version 2
    Профиль формата : Main@Main
    Параметр BVOP формата : Да
    Параметр матрицы формата : Выборочная
    Параметр GOP формата : M=3, N=12
    Продолжительность : 25 м.
    Вид битрейта : Переменный
    Битрейт : 4727 Кбит/сек
    Максимальный битрейт : 7601 Кбит/сек
    Ширина : 720 пикселей
    Высота : 576 пикселей
    Соотношение сторон : 16:9
    Частота кадров : 25, 000 кадров/сек
    Стандарт вещания : PAL
    Цветовое пространство : YUV
    Субдискретизация насыщенности : 4:2:0
    Битовая глубина : 8 бит
    Тип развёртки : Прогрессивная
    Порядок развёртки : Верхнее поле первое
    Метод сжатия : С потерями
    Бит/(Пиксели*Кадры) : 0.456
    Временной код первого кадра : 00:52:55:15
    Оригинал временного кода : Group of pictures t_head
    GOP, открыто/закрыто : Открыто
    Размер потока : 863 Мбайт (84%)
    Аудио #1
    Идентификатор : 189 (0xBD)-128 (0x80)
    Формат : AC-3
    Формат/Информация : Audio Coding 3
    Расширение режима : CM (complete main)
    Параметр Endianness формата : Big
    Режим смешивания : DVD-Video
    Продолжительность : 25 м.
    Вид битрейта : Постоянный
    Битрейт : 384 Кбит/сек
    Каналы : 6 каналов
    Расположение каналов : Front: L C R, Side: L R, LFE
    Частота : 48, 0 КГц
    Частота кадров : 31, 250 кадров/сек (1536 spf)
    Метод сжатия : С потерями
    Задержка видео : -416 мс.
    Размер потока : 70, 1 Мбайт (7%)
    Аудио #2
    Идентификатор : 189 (0xBD)-130 (0x82)
    Формат : AC-3
    Формат/Информация : Audio Coding 3
    Расширение режима : CM (complete main)
    Параметр Endianness формата : Big
    Режим смешивания : DVD-Video
    Продолжительность : 25 м.
    Вид битрейта : Постоянный
    Битрейт : 384 Кбит/сек
    Каналы : 6 каналов
    Расположение каналов : Front: L C R, Side: L R, LFE
    Частота : 48, 0 КГц
    Частота кадров : 31, 250 кадров/сек (1536 spf)
    Метод сжатия : С потерями
    Задержка видео : -416 мс.
    Размер потока : 70, 1 Мбайт (7%)
    Текст #1
    Идентификатор : 189 (0xBD)-32 (0x20)
    Формат : RLE
    Формат/Информация : Run-length encoding
    Режим смешивания : DVD-Video
    Задержка видео : 2 с. Самое интересное в это истории, что об этом Валуев ничего не знал. 520 мс.
    Текст #2
    Идентификатор : 189 (0xBD)-33 (0x21)
    Формат : RLE
    Формат/Информация : Run-length encoding
    Режим смешивания : DVD-Video
    Задержка видео : 4 с. 400 мс.
    Текст #3
    Идентификатор : 189 (0xBD)-34 (0x22)
    Формат : RLE
    Формат/Информация : Run-length encoding
    Режим смешивания : DVD-Video
    Задержка видео : 2 с. 400 мс.
    Текст #4
    Идентификатор : 189 (0xBD)-35 (0x23)
    Формат : RLE
    Формат/Информация : Run-length encoding
    Режим смешивания : DVD-Video
    Задержка видео : 2 с. Бесплатный сыр, сказал кто то из толпы, к чему не понятно. 360 мс.
    Текст #5
    Идентификатор : 189 (0xBD)-36 (0x24)
    Формат : RLE
    Формат/Информация : Run-length encoding
    Режим смешивания : DVD-Video
    Задержка видео : 2 с. 320 мс.
    Текст #6
    Идентификатор : 189 (0xBD)-37 (0x25)
    Формат : RLE
    Формат/Информация : Run-length encoding
    Режим смешивания : DVD-Video
    Задержка видео : 2 с. 280 мс.
    Текст #7
    Идентификатор : 189 (0xBD)-38 (0x26)
    Формат : RLE
    Формат/Информация : Run-length encoding
    Режим смешивания : DVD-Video
    Задержка видео : 2 с. 440 мс.
    Текст #8
    Идентификатор : 189 (0xBD)-39 (0x27)
    Формат : RLE
    Формат/Информация : Run-length encoding
    Режим смешивания : DVD-Video
    Задержка видео : 2 с. 520 мс.
    Текст #9
    Идентификатор : 189 (0xBD)-40 (0x28)
    Формат : RLE
    Формат/Информация : Run-length encoding
    Режим смешивания : DVD-Video
    Задержка видео : 2 с. 520 мс.
    Текст #10
    Идентификатор : 189 (0xBD)-41 (0x29)
    Формат : RLE
    Формат/Информация : Run-length encoding
    Режим смешивания : DVD-Video
    Задержка видео : 2 с. 440 мс.
    Меню


    Скриншоты для ознакомления




    Онлайн видео Стажёр



    Стажёр/The Intern (2015) DVD5
    загрузка...
    Рейтинг →
     (голосов: 1, оценка 5/5, голосовать можно 1 раз )

    Другие торренты по теме:

  • Стажёр / The Intern (2015) WEB-DLRip скачать через торрент бесплатно
  • Стажёр / The Intern (2015) WEB-DL [H.264 / 1080p-LQ] скачать через торрент бесплатно
  • Стажёр / The Intern (2015) WEB-DL [H.264 / 720p-LQ] [Line] скачать через торрент бесплатно
  • Стажёр / The Intern (2015) WEB-DLRip [H.264] [Line] скачать через торрент бесплатно
  • Стажёр / The Intern (2015) WEB-DLRip [Line] скачать через торрент бесплатно
  • Стажёр / The Intern (2015) WEB-DLRip [Line] скачать через торрент бесплатно
  • Стажёр / The Intern (2015) WEB-DL [H.264 / 1080p-LQ] [Line] скачать через торрент бесплатно
  • Стажёр / The Intern (2015) AC3 5.1 [hand made] скачать через торрент бесплатно


    • Комментарии (0):

      Информация

      Информация

        Посетители, находящиеся в группе Гости, не могут оставлять комментарии в данной новости.

        ↓ Меню




        ↓ Опрос

        Вы добавили сайт в закладки?
        Да
        Нет


        Top 10 за месяц (Фильмы)