.
Авторизация | Регистрация
Хочешь лучшие торренты? Добавь свой email!
Добавить

Торрент скачать бесплатно

» » Сорвиголова / Daredevil (2016) WEBRip [H.264 / 1080p] (сезон 2, серии 1-5 из 13) LostFilm (обновляемая) торрент скачать бесплатно




    Сорвиголова / Daredevil (2016) WEBRip [H.264 / 1080p] (сезон 2, серии 1-5 из 13) LostFilm (обновляемая) торрент скачать бесплатно

    Опубликовал: Админ | Дата: 6-04-2016, 04:00 | Просмотров: 8

    Производство: США/ABC Studios, DeKnight Productions, Goddard Textiles
    Жанр: боевик, драма, криминал
    Режиссер: Фил Абрахам, Стивен Серджик, Питер Хор

    Актеры
    Чарли Кокс, Дебора Энн Уолл, Элден Хенсон, Винсент Д’Онофрио, Вонди Куртис-Холл, Тоби Леонард Мур, Боб Гантон, Розарио Доусон, Айелет Зурер, Ройс Джонсон и др.

    Описание

    Сорвиголова — криминальный супергеройский боевик совместного производства Marvel Television и ABC Studios. В основу телешоу легла серия графических романов о незрячем борце с преступностью Мэтте Мердоке.
    После битвы Мстителей с инопланетными захватчиками читаури Нью-Йорк стал небезопасным местом. Мафиозные банды начали бороться за сферы влияния, а теневой бизнес — процветать. Концентрацией беззакония оказался самый нищий район мегаполиса — Адская кухня. Здесь опасно выходить на улицу по вечерам, за взятку можно купить даже человеческую жизнь, а продажных полицейских нужно бояться больше, чем случайных воров. Во главе местных криминальных элементов стоит вездесущий хладнокровный монстр Уилсон Фиск, который хочет распространить свою власть на весь город и полностью изменить его облик. Божий одуванчик, сказал кто то из толпы, к чему не понятно. Помешать планам будущего Кингпина может лишь один человек — невесть откуда взявшийся каратель в черной маске.

    Продолжительность: ~00: 53: 00 серия
    Качество видео: WEBRip 1080p
    Перевод: Многоголосый закадровый, профессиональный -LostFilm
    Вид субтитров: вшитые отключаемые
    Язык субтитров: русский, английский, французский, немецкий, испанский
    Видео: H.264/AVC, 1920x1080 (16: 9), ~8, 5-13, 8 mb/s
    Аудио Rus: AC-3, 48, 0 kHz, 2 ch, 384 kb/s — многоголосый закадровый
    Аудио Eng: AC-3, 48, 0 kHz, 6 ch, 384 kb/s — оригинал
    Общее
    Уникальный идентификатор : 177678439406478168348382605386833040076 (0x85AB9F68C6749F4DA9D3C72E6E4592CC)
    Полное имя : D: Сорвиголова (сезон любимого сериала 2) Daredevil (2016) WEBRip 1080p - LostFilmMarvels.Daredevil.S02E02.WEBRip1080p.Rus.Eng.DV.LostFilm.mkv
    Формат : Matroska
    Версия формата : Version 4/Version 2
    Размер файла : 4, 63 Гбайт
    Продолжительность : 49 м.
    Общий поток : 13, 4 Мбит/сек
    Название фильма : Marvels.Daredevil.S02E02.WEBRip1080p.Rus.Eng.DV.LostFilm/NNM-Club
    Дата кодирования : UTC 2016-04-04 05: 12: 56
    Программа кодирования : mkvmerge v8.2.0 (\'World of Adventure\') 64bit
    Библиотека кодирования : libebml v1.3.1 + libmatroska v1.4.2
    Обложка : Yes
    Attachments : Cover
    Видео
    Идентификатор : 1
    Формат : AVC
    Формат/Информация : Advanced Video Codec
    Профиль формата : High@L4.1
    Параметр CABAC формата : Да
    Параметр ReFrames формата : 4 кадра
    Идентификатор кодека : V_MPEG4/ISO/AVC
    Продолжительность : 49 м.
    Битрейт : 12, 6 Мбит/сек
    Ширина : 1920 пикселей
    Высота : 1080 пикселей
    Соотношение сторон : 16: 9
    Режим частоты кадров : Постоянный
    Частота кадров : 23, 976 (24000/1001) кадра/сек
    Цветовое пространство : YUV
    Субдискретизация насыщенности : 4: 2: 0
    Битовая глубина : 8 бит
    Тип развёртки : Прогрессивная
    Бит/(Пиксели*Кадры) : 0.253
    Размер потока : 4, 37 Гбайт (94%)
    Библиотека кодирования : x264 core 148 r2665 a01e339
    Настройки программы : cabac=1/ref=4/deblock=1: -1: -1/analyse=0x3: 0x133/me=umh/subme=10/psy=1/psy_rd=1.05: 0.00/mixed_ref=1/me_range=24/chroma_me=1/trellis=2/8x8dct=1/cqm=0/deadzone=21, 11/fast_pskip=1/chroma_qp_offset=-2/threads=24/lookahead_threads=4/sliced_threads=0/nr=0/decimate=1/interlaced=0/bluray_compat=0/constrained_intra=0/bframes=8/b_pyramid=2/b_adapt=2/b_bias=0/direct=3/weightb=1/open_gop=0/weightp=2/keyint=250/keyint_min=23/scenecut=40/intra_refresh=0/rc_lookahead=60/rc=crf/mbtree=1/crf=18.0/qcomp=0.60/qpmin=0/qpmax=69/qpstep=4/ip_ratio=1.40/aq=2: 0.90
    Язык : English
    Default : Да
    Forced : Нет
    Цветовой диапазон : Limited
    Основные цвета : BT.709
    Характеристики трансфера : BT.709
    Коэффициенты матрицы : BT.709
    Аудио #1
    Идентификатор : 2
    Формат : AC-3
    Формат/Информация : Audio Coding 3
    Расширение режима : CM (complete main)
    Параметр Endianness формата : Big
    Идентификатор кодека : A_AC3
    Продолжительность : 49 м.
    Вид битрейта : Постоянный
    Битрейт : 384 Кбит/сек
    Каналы : 2 канала
    Расположение каналов : Front: L R
    Частота : 48, 0 КГц
    Частота кадров : 31, 250 кадров/сек (1536 spf)
    Метод сжатия : С потерями
    Размер потока : 136 Мбайт (3%)
    Заголовок : LostFilm
    Язык : Russian
    Default : Да
    Forced : Нет
    Аудио #2
    Идентификатор : 3
    Формат : AC-3
    Формат/Информация : Audio Coding 3
    Расширение режима : CM (complete main)
    Параметр Endianness формата : Big
    Идентификатор кодека : A_AC3
    Продолжительность : 49 м.
    Вид битрейта : Постоянный
    Битрейт : 384 Кбит/сек
    Каналы : 6 каналов
    Расположение каналов : Front: L C R, Side: L R, LFE
    Частота : 48, 0 КГц
    Частота кадров : 31, 250 кадров/сек (1536 spf)
    Метод сжатия : С потерями
    Размер потока : 136 Мбайт (3%)
    Язык : English
    Default : Нет
    Forced : Нет
    Текст #1
    Идентификатор : 4
    Формат : UTF-8
    Идентификатор кодека : S_TEXT/UTF8
    Идентификатор кодека/Информация : UTF-8 Plain Text
    Продолжительность : 48 м.
    Битрейт : 108 бит/сек
    Count of elements : 647
    Размер потока : 38, 2 Кбайт (0%)
    Язык : Russian
    Default : Нет
    Forced : Нет
    Текст #2
    Идентификатор : 5
    Формат : UTF-8
    Идентификатор кодека : S_TEXT/UTF8
    Идентификатор кодека/Информация : UTF-8 Plain Text
    Продолжительность : 47 м.
    Битрейт : 63 бит/сек
    Count of elements : 645
    Размер потока : 22, 2 Кбайт (0%)
    Язык : English
    Default : Нет
    Forced : Нет
    Текст #3
    Идентификатор : 6
    Формат : UTF-8
    Идентификатор кодека : S_TEXT/UTF8
    Идентификатор кодека/Информация : UTF-8 Plain Text
    Продолжительность : 49 м.
    Битрейт : 56 бит/сек
    Count of elements : 609
    Размер потока : 20, 4 Кбайт (0%)
    Язык : French
    Default : Нет
    Forced : Нет
    Текст #4
    Идентификатор : 7
    Формат : UTF-8
    Идентификатор кодека : S_TEXT/UTF8
    Идентификатор кодека/Информация : UTF-8 Plain Text
    Продолжительность : 47 м.
    Битрейт : 58 бит/сек
    Count of elements : 591
    Размер потока : 20, 6 Кбайт (0%)
    Язык : German
    Default : Нет
    Forced : Нет
    Текст #5
    Идентификатор : 8
    Формат : UTF-8
    Идентификатор кодека : S_TEXT/UTF8
    Идентификатор кодека/Информация : UTF-8 Plain Text
    Продолжительность : 47 м.
    Битрейт : 57 бит/сек
    Count of elements : 611
    Размер потока : 20, 2 Кбайт (0%)
    Язык : Spanish
    Default : Нет
    Forced : Нет


    Скриншоты для ознакомления




    Онлайн видео Сорвиголова



    Сорвиголова/Daredevil (2016) WEBRip [H.264/1080p] (сезон 2, серии 1-5 из 13) LostFilm (обновляемая)
    загрузка...
    Рейтинг →
     (голосов: 1, оценка 5/5, голосовать можно 1 раз )

    Другие торренты по теме:

  • Сорвиголова / Daredevil (2015) WEBRip [H.264 / 1080p-LQ] (сезон 1, серии 1-3 из 13) NewStudio (обновляемая) скачать через торрент бесплатно
  • Сорвиголова / Daredevil (2015) WEBRip (сезон 1, серии 1-2 из 13) BaibaKo (обновляемая) скачать через торрент бесплатно
  • Сорвиголова / Daredevil (2015) WEBRip (сезон 1, серии 1 из 13) NewStudio (обновляемая) скачать через торрент бесплатно
  • Сорвиголова / Daredevil (2015) WEBRip [H.264 / 720p-LQ] (сезон 1, серии 1 из 13) NewStudio (обновляемая) скачать через торрент бесплатно
  • Сорвиголова / Daredevil (2015) WEBRip [H.264 / 1080p-LQ] (сезон 1, серии 1-3 из 13) (BaibaKo) (обновляемая) скачать через торрент бесплатно
  • Сорвиголова / Daredevil (2015) WEBRip [H.264] (сезон 1, серии 1-5 из 13) NewStudio (обновляемая) скачать через торрент бесплатно
  • John Paesano - Сорвиголова / Daredevil (2015) [AAC|WEB-DL|256 кб / с]<Score> скачать через торрент бесплатно
  • Сорвиголова / Daredevil (2015) WEBRip (сезон 1, серии 1 из 13) LostFilm (обновляемая) скачать через торрент бесплатно


    • Комментарии (0):

      Информация

      Информация

        Посетители, находящиеся в группе Гости, не могут оставлять комментарии в данной новости.

        ↓ Меню




        ↓ Опрос

        Вы добавили сайт в закладки?
        Да
        Нет


        Top 10 за месяц (Фильмы)