.
Авторизация | Регистрация
Хочешь лучшие торренты? Добавь свой email!
Добавить

Торрент скачать бесплатно

» » Сорвиголова / Daredevil (2016) WEBRip (сезон 2, серии 1-5 из 13) LostFilm (обновляемая) торрент скачать бесплатно




    Сорвиголова / Daredevil (2016) WEBRip (сезон 2, серии 1-5 из 13) LostFilm (обновляемая) торрент скачать бесплатно

    Опубликовал: Админ | Дата: 6-04-2016, 04:00 | Просмотров: 11

    Производство: США/ABC Studios, DeKnight Productions, Goddard Textiles
    Жанр: боевик, драма, криминал
    Режиссер: Фил Абрахам, Стивен Серджик, Питер Хор

    Актеры
    Чарли Кокс, Дебора Энн Уолл, Элден Хенсон, Винсент Д’Онофрио, Вонди Куртис-Холл, Тоби Леонард Мур, Боб Гантон, Розарио Доусон, Айелет Зурер, Ройс Джонсон и др.

    Описание

    Сорвиголова — криминальный супергеройский боевик совместного производства Marvel Television и ABC Studios. В основу телешоу легла серия графических романов о незрячем борце с преступностью Мэтте Мердоке.
    После битвы Мстителей с инопланетными захватчиками читаури Нью-Йорк стал небезопасным местом. Мафиозные банды начали бороться за сферы влияния, а теневой бизнес — процветать. Концентрацией беззакония оказался самый нищий район мегаполиса — Адская кухня. Самое интересное в это истории, что об этом Уил Смит ничего не знал. Здесь опасно выходить на улицу по вечерам, за взятку можно купить даже человеческую жизнь, а продажных полицейских нужно бояться больше, чем случайных воров. Во главе местных криминальных элементов стоит вездесущий хладнокровный монстр Уилсон Фиск, который хочет распространить свою власть на весь город и полностью изменить его облик. Самое интересное в это истории, что об этом Уил Смит ничего не знал. Помешать планам будущего Кингпина может лишь один человек — невесть откуда взявшийся каратель в черной маске.

    Продолжительность: ~00: 53: 00 серия
    Качество видео: WEBRip
    Перевод: Многоголосый закадровый, профессиональный -LostFilm
    Вид субтитров: отдельным файлом
    Язык субтитров: русский, английский
    Видео: XviD, 720x400 (16: 9), ~1500 kb/s
    Аудио Rus: MPEG Layer 3, 48, 0 kHz, 2 ch, 128 kb/s — многоголосый закадровый
    Аудио Eng: MPEG Layer 3, 48, 0 kHz, 2 ch, 128 kb/s — оригинал
    Общее
    Полное имя : D: Сорвиголова (сезон любимого сериала 2) Daredevil (2016) WEBRip - LostFilmMarvels.Daredevil.S02E02.WEBRip.Rus.Eng.DV.LostFilm.avi
    Формат : AVI
    Формат/Информация : Audio Video Interleave
    Размер файла : 624 Мбайт
    Продолжительность : 49 м.
    Общий поток : 1758 Кбит/сек
    Программа кодирования : VirtualDubModRus 1.5.10.2 (build 2542/release)
    Библиотека кодирования : VirtualDubMod build 2542/release
    Видео
    Идентификатор : 0
    Формат : MPEG-4 Visual
    Профиль формата : Advanced Simple@L5
    Параметр BVOP формата : 2
    Параметр QPel формата : Нет
    Параметр GMC формата : Без точки перехода
    Параметр матрицы формата : Default (H.263)
    Идентификатор кодека : XVID
    Идентификатор кодека/Подсказка : XviD
    Продолжительность : 49 м.
    Битрейт : 1488 Кбит/сек
    Ширина : 720 пикселей
    Высота : 400 пикселей
    Соотношение сторон : 16: 9
    Частота кадров : 23, 976 (24000/1001) кадра/сек
    Цветовое пространство : YUV
    Субдискретизация насыщенности : 4: 2: 0
    Битовая глубина : 8 бит
    Тип развёртки : Прогрессивная
    Метод сжатия : С потерями
    Бит/(Пиксели*Кадры) : 0.215
    Размер потока : 528 Мбайт (85%)
    Заголовок : Rip by DriverV/NNM-Club
    Библиотека кодирования : XviD 64
    Аудио #1
    Идентификатор : 1
    Формат : MPEG Audio
    Версия формата : Version 1
    Профиль формата : Layer 3
    Режим : Joint stereo
    Расширение режима : MS Stereo
    Идентификатор кодека : 55
    Идентификатор кодека/Подсказка : MP3
    Продолжительность : 49 м.
    Вид битрейта : Постоянный
    Битрейт : 128 Кбит/сек
    Каналы : 2 канала
    Частота : 48, 0 КГц
    Метод сжатия : С потерями
    Размер потока : 45, 4 Мбайт (7%)
    Выравнивание : Разделение по промежуткам
    Продолжительность промежутка : 42 мс. (1, 00 видеокадр)
    Время предзагрузки промежутка : 500 мс.
    Аудио #2
    Идентификатор : 2
    Формат : MPEG Audio
    Версия формата : Version 1
    Профиль формата : Layer 3
    Режим : Joint stereo
    Расширение режима : MS Stereo
    Идентификатор кодека : 55
    Идентификатор кодека/Подсказка : MP3
    Продолжительность : 49 м.
    Вид битрейта : Постоянный
    Битрейт : 128 Кбит/сек
    Каналы : 2 канала
    Частота : 48, 0 КГц
    Метод сжатия : С потерями
    Размер потока : 45, 4 Мбайт (7%)
    Выравнивание : Разделение по промежуткам
    Продолжительность промежутка : 42 мс. (1, 00 видеокадр)
    Время предзагрузки промежутка : 500 мс.


    Скриншоты для ознакомления




    Онлайн видео Сорвиголова



    Сорвиголова/Daredevil (2016) WEBRip (сезон 2, серии 1-5 из 13) LostFilm (обновляемая)
    загрузка...
    Рейтинг →
     (голосов: 1, оценка 4/5, голосовать можно 1 раз )

    Другие торренты по теме:

  • Сорвиголова / Daredevil (2015) WEBRip [H.264 / 1080p-LQ] (сезон 1, серии 1-3 из 13) NewStudio (обновляемая) скачать через торрент бесплатно
  • Сорвиголова / Daredevil (2015) WEBRip (сезон 1, серии 1-2 из 13) BaibaKo (обновляемая) скачать через торрент бесплатно
  • Сорвиголова / Daredevil (2015) WEBRip (сезон 1, серии 1 из 13) NewStudio (обновляемая) скачать через торрент бесплатно
  • Сорвиголова / Daredevil (2015) WEBRip [H.264 / 720p-LQ] (сезон 1, серии 1 из 13) NewStudio (обновляемая) скачать через торрент бесплатно
  • Сорвиголова / Daredevil (2015) WEBRip [H.264 / 1080p-LQ] (сезон 1, серии 1-3 из 13) (BaibaKo) (обновляемая) скачать через торрент бесплатно
  • Сорвиголова / Daredevil (2015) WEBRip [H.264] (сезон 1, серии 1-5 из 13) NewStudio (обновляемая) скачать через торрент бесплатно
  • John Paesano - Сорвиголова / Daredevil (2015) [AAC|WEB-DL|256 кб / с]<Score> скачать через торрент бесплатно
  • Сорвиголова / Daredevil (2015) WEBRip (сезон 1, серии 1 из 13) LostFilm (обновляемая) скачать через торрент бесплатно


    • Комментарии (0):

      Информация

      Информация

        Посетители, находящиеся в группе Гости, не могут оставлять комментарии в данной новости.

        ↓ Меню




        ↓ Опрос

        Вы добавили сайт в закладки?
        Да
        Нет


        Top 10 за месяц (Фильмы)