.
Авторизация | Регистрация
Хочешь лучшие торренты? Добавь свой email!
Добавить

Торрент скачать бесплатно

» » Физрук (2016) SATRip (Сезон 3, серии 1-2 из 20) (обновляемая) торрент скачать бесплатно




    Физрук (2016) SATRip (Сезон 3, серии 1-2 из 20) (обновляемая) торрент скачать бесплатно

    Опубликовал: Админ | Дата: 5-04-2016, 04:00 | Просмотров: 48

    Производство: Россия/Good Story Media по заказу
    Жанр: Комедия
    Режиссер: Сергей Сенцов

    Актеры
    Дмитрий Нагиев, Александр Гордон, Полина Гренц, Анастасия Панина, Владимир Сычёв, Данила Вахрушев, Андрей Крыжний, Артур Сопельник, Оксана Сидоренко, Карина Мишулина, Роман Индык, Елена Муравьёва, Евгений Кулаков, Виктория Клинкова, Ян Цапник, Екатерина Айсина, Наталья Коренная, Варвара Богданова, Мария Киселева, Иван Мудров, Дмитрий Гогу, Владимир Жеребцов, Владимир Епископосян, Сергей Серов, Сергей Журавлёв, Любовь Германова, Борис Клюев, Дмитрий Власкин

    Описание

    Это история о столкновении двух времен: лихих 90-х и стабильных десятых. Главный герой Фома всю жизнь был правой рукой влиятельного человека с полукриминальным прошлым. Когда хозяин выгнал его на пенсию, Фома решил любым способом вернуться обратно. Сначала казалось, что все будет просто: подобраться к ребенку бывшего босса, прогнуться, напомнить о себе и вернуться в дело. Но план Фомы рушится в первый же день. В школе ему приходится задержаться надолго. Попав в абсолютно незнакомый мир детей и учителей, который кардинально отличается от привычного ему круга, Фома не только меняет свою жизнь, но и меняется сам.

    Возраст: 16+ (зрителям, достигшим 16 лет)
    Продолжительность: ~00: 25: 00 серия
    Качество видео: SATRip
    Видео: XviD, 720x400 (16: 9), ~1463 kb/s
    Аудио: MPEG Layer 3, 48 kHz, 2 ch, 192 kbps
    Код:
    Общее
    Полное имя : D:РелизыФизрук 3 (2016) SATRip_NNMClub.to2.серия.avi
    Формат : AVI
    Формат/Информация : Audio Video Interleave
    Размер файла : 282 Мбайт
    Продолжительность : 23 м.
    Общий поток : 1665 Кбит/сек
    Программа кодирования : VirtualDubMod 1.5.10.3 (build 2550/release)
    Библиотека кодирования : VirtualDubMod build 2550/release
    Видео
    Идентификатор : 0
    Формат : MPEG-4 Visual
    Профиль формата : Advanced Simple@L5
    Параметр BVOP формата : 1
    Параметр QPel формата : Нет
    Параметр GMC формата : Без точки перехода
    Параметр матрицы формата : Default (H.263)
    Идентификатор кодека : XVID
    Идентификатор кодека/Подсказка : XviD
    Продолжительность : 23 м.
    Битрейт : 1463 Кбит/сек
    Ширина : 720 пикселей
    Высота : 400 пикселей
    Соотношение сторон : 16:9
    Частота кадров : 25, 000 кадров/сек
    Цветовое пространство : YUV
    Субдискретизация насыщенности : 4:2:0
    Битовая глубина : 8 бит
    Тип развёртки : Прогрессивная
    Метод сжатия : С потерями
    Бит/(Пиксели*Кадры) : 0.203
    Размер потока : 248 Мбайт (88%)
    Библиотека кодирования : XviD 67
    Аудио
    Идентификатор : 1
    Формат : MPEG Audio
    Версия формата : Version 1
    Профиль формата : Layer 3
    Режим : Joint stereo
    Расширение режима : MS Stereo
    Идентификатор кодека : 55
    Идентификатор кодека/Подсказка : MP3
    Продолжительность : 23 м.
    Вид битрейта : Постоянный
    Битрейт : 192 Кбит/сек
    Каналы : 2 канала
    Частота : 48, 0 КГц
    Метод сжатия : С потерями
    Размер потока : 32, 5 Мбайт (12%)
    Выравнивание : Разделение по промежуткам
    Продолжительность промежутка : 40 мс. (1, 00 видеокадр)
    Время предзагрузки промежутка : 500 мс.
    Библиотека кодирования : LAME3.99.5


    Скриншоты для ознакомления




    Онлайн видео Физрук (2016) SATRip (Сезон 3, серии 1



    Физрук (2016) SATRip (Сезон 3, серии 1-2 из 20) (обновляемая)
    загрузка...
    Рейтинг →
     (голосов: 1, оценка 3/5, голосовать можно 1 раз )

    Другие торренты по теме:

  • Физрук (2014) SATRip ( сезон 2, серии 1-3 из 20) (обновляемая)
  • Физрук (2014) SATRip (Сезон 2, серии 6-7 из 20) (обновляемая) (временная) скачать через торрент бесплатно
  • Физрук (2016) SATRip [H.264] (Сезон 3, серии 1-4 из 20) (обновляемая)
  • Физрук (2014-2016) SATRip (сезон 1-3, серии 1-61 из 61)
  • Физрук (2017) SATRip [H.264] (сезон 4, серии 1-2 из 20) (обновляемая)


    • Комментарии (0):

      Информация

      Информация

        Посетители, находящиеся в группе Гости, не могут оставлять комментарии в данной новости.

        ↓ Меню




        ↓ Опрос

        Вы добавили сайт в закладки?
        Да
        Нет


        Top 10 за месяц (Фильмы)