.
Авторизация | Регистрация
Хочешь лучшие торренты? Добавь свой email!
Добавить

Торрент скачать бесплатно

» » Банши / Banshee (2016) HDTVRip (сезон 4, серии 1 из 8) NewStudio (обновляемая) торрент скачать бесплатно




    Банши / Banshee (2016) HDTVRip (сезон 4, серии 1 из 8) NewStudio (обновляемая) торрент скачать бесплатно

    Опубликовал: Админ | Дата: 5-04-2016, 04:00 | Просмотров: 51

    Производство: США/Your Face Goes Here Entertainment, Cinemax
    Жанр: боевик, криминал, драма
    Режиссер: Оле Кристиан Мадсен, Грег Яйтанс, Лони Перистер

    Актеры
    Энтони Старр, Ивана Миличевич, Ульрих Томсен, Хун Ли, Фрэнки Фэйзон, Лили Симмонс, Триесте Келли Данн, Рас Блэквелл, Мэтт Сервитто, Деметриус Гросс и др.

    Описание

    Лжешерифа Лукаса Худа и его бригаду ждут новые испытания и передряги, которые опять потребуют балансировать по обе стороны закона. Время пошло, сказал кто то из толпы, к чему не понятно. А еще в последнем сезон любимого сериалае появляется харизматичный персонаж – сексуальная и поразительно безрассудная криминалистка ФБР, не без греха. Итак, Худ, Кэрри, Проктор и банда возвращаются, чтобы вступить в кульминационную гонку под названием “все или ничего”.

    Продолжительность: ~00: 58: 00 серия
    Качество видео: HDTVRip
    Перевод: Многоголосый закадровый, профессиональный -NewStudio
    Автор перевода: weirdie
    Внимание! Присутствует ненормативная лексика.
    Видео: XviD, 720x400 (16: 9), ~1400 kb/s
    Аудио Rus: MP3, 48, 0 kHz, 2 ch, 128 kb/s — многоголосый закадровый
    Аудио Eng: MP3, 48, 0 kHz, 2 ch, 128 kb/s — оригинал
    Общее
    Полное имя : D: Банши (сезон любимого сериала 4) Banshee (2016) HDTVRip - NewStudioBanshee.S04E01.HDTVRip.Rus.Eng.DV.NewStudio.avi
    Формат : AVI
    Формат/Информация : Audio Video Interleave
    Размер файла : 690 Мбайт
    Продолжительность : 57 м.
    Общий поток : 1677 Кбит/сек
    Программа кодирования : VirtualDubModRus 1.5.10.2 (build 2542/release)
    Библиотека кодирования : VirtualDubMod build 2542/release
    Видео
    Идентификатор : 0
    Формат : MPEG-4 Visual
    Профиль формата : Advanced Simple@L5
    Параметр BVOP формата : 2
    Параметр QPel формата : Нет
    Параметр GMC формата : Без точки перехода
    Параметр матрицы формата : Default (MPEG)
    Идентификатор кодека : XVID
    Идентификатор кодека/Подсказка : XviD
    Продолжительность : 57 м.
    Битрейт : 1407 Кбит/сек
    Ширина : 720 пикселей
    Высота : 400 пикселей
    Соотношение сторон : 16: 9
    Частота кадров : 23, 976 (23976/1000) кадра/сек
    Цветовое пространство : YUV
    Субдискретизация насыщенности : 4: 2: 0
    Битовая глубина : 8 бит
    Тип развёртки : Прогрессивная
    Метод сжатия : С потерями
    Бит/(Пиксели*Кадры) : 0.204
    Размер потока : 579 Мбайт (84%)
    Библиотека кодирования : XviD 73
    Аудио #1
    Идентификатор : 1
    Формат : MPEG Audio
    Версия формата : Version 1
    Профиль формата : Layer 3
    Режим : Joint stereo
    Расширение режима : MS Stereo
    Идентификатор кодека : 55
    Идентификатор кодека/Подсказка : MP3
    Продолжительность : 57 м.
    Вид битрейта : Постоянный
    Битрейт : 128 Кбит/сек
    Каналы : 2 канала
    Частота : 48, 0 КГц
    Метод сжатия : С потерями
    Размер потока : 52, 7 Мбайт (8%)
    Выравнивание : Соединение по промежуткам
    Продолжительность промежутка : 42 мс. (1, 00 видеокадр)
    Время предзагрузки промежутка : 504 мс.
    Аудио #2
    Идентификатор : 2
    Формат : MPEG Audio
    Версия формата : Version 1
    Профиль формата : Layer 3
    Режим : Joint stereo
    Расширение режима : MS Stereo
    Идентификатор кодека : 55
    Идентификатор кодека/Подсказка : MP3
    Продолжительность : 57 м.
    Вид битрейта : Постоянный
    Битрейт : 128 Кбит/сек
    Каналы : 2 канала
    Частота : 48, 0 КГц
    Метод сжатия : С потерями
    Размер потока : 52, 7 Мбайт (8%)
    Выравнивание : Соединение по промежуткам
    Продолжительность промежутка : 42 мс. (1, 00 видеокадр)
    Время предзагрузки промежутка : 504 мс.
    Библиотека кодирования : LAME3.99.5


    Скриншоты для ознакомления




    Онлайн видео Банши



    Банши/Banshee (2016) HDTVRip (сезон 4, серии 1 из 8) NewStudio (обновляемая)
    загрузка...
    Рейтинг →
     (голосов: 1, оценка 4/5, голосовать можно 1 раз )

    Другие торренты по теме:

  • Банши / Banshee (2014) WEB-DL [H.264 / 720p-LQ] (сезон 2, серии 1 из 10) NewStudio (обновляемая)
  • Банши / Banshee (2014) WEB-DLRip (Сезон 2, серия 1 из 10) (NewStudio) (обновляемая)
  • Банши / Banshee (2014) WEBRip [720p] [Трейлер] (сезон 3) [EN]
  • Банши / Banshee (2015) HDTVRip (сезон 3, серии 1 из 10) Amedia (обновляемая)
  • Банши / Banshee (2015) HDTV [720p] (Сезон 3, серия 1 из 10) (NewStudio) (обновляемая) скачать через торрент бесплатно
  • Банши / Banshee (2015) HDTVRip (сезон 3, серии 1 из 10) NewStudio (обновляемая) скачать через торрент бесплатно
  • Банши / Banshee (2014) HDTV [H.264 / 1080i-LQ] (сезон 2, серии 1-10 из 10) (Amedia)
  • Банши / Banshee (2015) WEB-DLRip (сезон 3, серии 1-6 из 10) NewStudio, Amedia (обновляемая) скачать через торрент бесплатно


    • Комментарии (0):

      Информация

      Информация

        Посетители, находящиеся в группе Гости, не могут оставлять комментарии в данной новости.

        ↓ Меню




        ↓ Опрос

        Вы добавили сайт в закладки?
        Да
        Нет


        Top 10 за месяц (Фильмы)