.
Авторизация | Регистрация
Хочешь лучшие торренты? Добавь свой email!
Добавить

Торрент скачать бесплатно

» » Американцы / The Americans (2016) WEB-DLRip (сезон 4, серии 1-3 из 13) NewStudio (обновляемая) торрент скачать бесплатно




    Американцы / The Americans (2016) WEB-DLRip (сезон 4, серии 1-3 из 13) NewStudio (обновляемая) торрент скачать бесплатно

    Опубликовал: Админ | Дата: 4-04-2016, 04:00 | Просмотров: 34

    Производство: США/DreamWorks Television
    Жанр: триллер, драма, криминал, детектив
    Режиссер: Дэниэл Сакхайм, Томас Шламми, Кевин Даулинг

    Актеры
    Кери Рассел, Мэттью Риз, Ноа Эммерик, Холли Тейлор, Кейдрич Селлати, Аннет Махендру, Ричард Томас, Элисон Райт, Лев Горн, Коста Ронин и др.

    Описание

    История о сложном браке двух агентов КГБ, которые под видом американцев заселяются в пригород Вашингтона сразу после того, как президентом избирают Рейгана. Прикольно все это наверно придумал Европарламент потратив достаточно времени. Подставной брак Филлипа и Элизабет с каждым днем становится все более настоящим и эмоциональным, несмотря на эскалацию холодной войны и опасные отношения, которые они должны поддерживать с сетью шпионов и по большей части информаторов. Напряжение нарастает, когда появляется новый сосед Стэн, агент ФБР, который работает в контрразведке.

    Продолжительность: ~00: 45: 00 серия (1 серия - 00: 49: 14)
    Качество видео: WEB-DLRip
    Перевод: Многоголосый закадровый, профессиональный -NewStudio
    Автор перевода: Weirdie
    Видео: XviD, 720x400 (16: 9), ~1300 kb/s
    Аудио Rus: MP3, 48, 0 kHz, 2 ch, 128 kb/s — многоголосый закадровый
    Аудио Eng: MP3, 48, 0 kHz, 2 ch, 128 kb/s — оригинал
    Общее
    Полное имя : D: Американцы (сезон любимого сериала 4) The Americans (2016) WEB-DLRip - NewStudioThe.Americans.S04E01.WEBDLRip.Rus.Eng.DV.NewStudio.avi
    Формат : AVI
    Формат/Информация : Audio Video Interleave
    Размер файла : 545 Мбайт
    Продолжительность : 49 м.
    Общий поток : 1547 Кбит/сек
    Программа кодирования : VirtualDubModRus 1.5.10.2 (build 2542/release)
    Библиотека кодирования : VirtualDubMod build 2542/release
    Видео
    Идентификатор : 0
    Формат : MPEG-4 Visual
    Профиль формата : Advanced Simple@L5
    Параметр BVOP формата : 2
    Параметр QPel формата : Нет
    Параметр GMC формата : Без точки перехода
    Параметр матрицы формата : Default (MPEG)
    Идентификатор кодека : XVID
    Идентификатор кодека/Подсказка : XviD
    Продолжительность : 49 м.
    Битрейт : 1278 Кбит/сек
    Ширина : 720 пикселей
    Высота : 400 пикселей
    Соотношение сторон : 16: 9
    Частота кадров : 23, 976 (23976/1000) кадра/сек
    Цветовое пространство : YUV
    Субдискретизация насыщенности : 4: 2: 0
    Битовая глубина : 8 бит
    Тип развёртки : Прогрессивная
    Метод сжатия : С потерями
    Бит/(Пиксели*Кадры) : 0.185
    Размер потока : 450 Мбайт (83%)
    Библиотека кодирования : XviD 73
    Аудио #1
    Идентификатор : 1
    Формат : MPEG Audio
    Версия формата : Version 1
    Профиль формата : Layer 3
    Режим : Joint stereo
    Расширение режима : MS Stereo
    Идентификатор кодека : 55
    Идентификатор кодека/Подсказка : MP3
    Продолжительность : 49 м.
    Вид битрейта : Постоянный
    Битрейт : 128 Кбит/сек
    Каналы : 2 канала
    Частота : 48, 0 КГц
    Метод сжатия : С потерями
    Размер потока : 45, 1 Мбайт (8%)
    Выравнивание : Соединение по промежуткам
    Продолжительность промежутка : 42 мс. (1, 00 видеокадр)
    Время предзагрузки промежутка : 504 мс.
    Аудио #2
    Идентификатор : 2
    Формат : MPEG Audio
    Версия формата : Version 1
    Профиль формата : Layer 3
    Режим : Joint stereo
    Расширение режима : MS Stereo
    Идентификатор кодека : 55
    Идентификатор кодека/Подсказка : MP3
    Продолжительность : 49 м.
    Вид битрейта : Постоянный
    Битрейт : 128 Кбит/сек
    Каналы : 2 канала
    Частота : 48, 0 КГц
    Метод сжатия : С потерями
    Размер потока : 45, 1 Мбайт (8%)
    Выравнивание : Соединение по промежуткам
    Продолжительность промежутка : 42 мс. (1, 00 видеокадр)
    Время предзагрузки промежутка : 504 мс.
    Библиотека кодирования : LAME3.99.5UUU!%DZ$


    Скриншоты для ознакомления




    Онлайн видео Американцы



    Американцы/The Americans (2016) WEB-DLRip (сезон 4, серии 1-3 из 13) NewStudio (обновляемая)
    загрузка...
    Рейтинг →
     (голосов: 1, оценка 3/5, голосовать можно 1 раз )

    Другие торренты по теме:

  • Американцы / The Americans (2015) WEBDLRip (сезон 3, серии 01 из 13) (NewStudio) (обновляемая)
  • Американцы / The Americans (2015) WEB-DL [H.264 / 720p-LQ] (сезон 3, серии 1 из 13) NewStudio (обновляемая) скачать через торрент бесплатно
  • Американцы / The Americans (2016) WEB-DL [H.264 / 720p-LQ] (сезон 4, серии 1 из 13) NewStudio (обновляемая)
  • Американцы / The Americans (2016) WEB-DL [H.264 / 1080p] (сезон 4, серии 1-2 из 13) NewStudio (обновляемая)
  • Мои дорогие американцы / My Fellow Americans (1996) WEB-DL [H.264 / 1080p-LQ]
  • Американцы / The Americans (2017) WEB-DLRip (сезон 5, серии 1 из 13) NewStudio (обновляемая)


    • Комментарии (0):

      Информация

      Информация

        Посетители, находящиеся в группе Гости, не могут оставлять комментарии в данной новости.

        ↓ Меню




        ↓ Опрос

        Вы добавили сайт в закладки?
        Да
        Нет


        Top 10 за месяц (Фильмы)