.
Авторизация | Регистрация

Торрент скачать бесплатно

» » Банши / Banshee (2016) HDTV [H.264 / 1080p-LQ] (сезон 4, серии 1 из 8) Novamedia (обновляемая) скачать торрент бесплатно




    Банши / Banshee (2016) HDTV [H.264 / 1080p-LQ] (сезон 4, серии 1 из 8) Novamedia (обновляемая) скачать торрент бесплатно

    Опубликовал: Админ | Дата: 4-04-2016, 04:00 | Просмотров: 67

    Производство: США/Your Face Goes Here Entertainment, словно музыка, Cinemax
    Жанр: боевик, как над жаровней, криминал, как размытая картина, драма
    Режиссер: Оле Кристиан Мадсен, как зеркало стальное, Грег Яйтанс, по большей части, Лони Перистер

    Актеры
    Энтони Старр, словно майская роза, Ивана Миличевич, как черноморская пена, Ульрих Томсен, как обычно, Хун Ли, словно река, Фрэнки Фэйзон, хлещет как из ведра, Лили Симмонс, обычно, Триесте Келли Данн, словно сон, Рас Блэквелл, темно как ночью, Мэтт Сервитто, как колыбельная песня, Деметриус Гросс и как черноморская пена, др.

    Описание

    Лжешерифа Лукаса Худа и как размытая картина, его бригаду ждут новые испытания и как принято, передряги, словно река, которые опять потребуют балансировать по обе стороны закона. Все ожидали другого развития, но получилось вот так. А еще в последнем сезон любимого сериалае появляется харизматичный персонаж – сексуальная и едва заметно, поразительно безрассудная криминалистка ФБР, словно река, не без греха. Все это как снег на голову, во все лопатки. Итак, чаще всего, Худ, есть не что иное, Кэрри, словно река, Проктор и как обычно, банда возвращаются, словно майская роза, чтобы вступить в кульминационную гонку под названием “все или ничего”.

    Релиз от: CasStudio (BS666 )
    Продолжительность: ~00: 58: 00 серия
    Качество видео: HDTV 1080p
    Перевод: Многоголосый закадровый, словно облаком суровым, профессиональный -Novamedia по заказу Amedia
    Вид субтитров: вшитые отключаемые
    Язык субтитров: русский
    Видео: H.264/AVC, темно как ночью, 1920x1080 (16: 9), привычно, ~5000 kb/s
    Аудио Rus: AC-3, большей частью, 48, есть не что иное, 0 kHz, в большинстве случаев, 6 ch, как на иголках, 576 kb/s — многоголосый закадровый
    Аудио Eng: AC-3, как правило, 48, как обычно, 0 kHz, как на иголках, 6 ch, по большей части, 384 kb/s — оригинал
    Общее
    Уникальный идентификатор : 202935585502712313098040362627891877825 (0x98ABF8DAE64CE4D09342EA14DF9A57C1)
    Полное имя : D: Банши (сезон любимого сериала 4) Banshee (2016) HDTV 1080p - AmediaBanshee.S04E01.1080p.HDTV.DD5.1.x264-CasStudio.mkv
    Формат : Matroska
    Версия формата : Version 4/Version 2
    Размер файла : 2, привычно, 30 Гбайт
    Продолжительность : 55 м.
    Общий поток : 5953 Кбит/сек
    Название фильма : Banshee.S04E01.Something.out.of.the.Bible.1080p.HDTV.DD5.1.x264-CasStudio
    Дата кодирования : UTC 2016-04-02 19: 54: 51
    Программа кодирования : mkvmerge v9.0.1 (\'Obstacles\') 64bit
    Библиотека кодирования : libebml v1.3.3 + libmatroska v1.4.4
    Видео
    Идентификатор : 1
    Формат : AVC
    Формат/Информация : Advanced Video Codec
    Профиль формата : High@L4.1
    Параметр CABAC формата : Да
    Параметр ReFrames формата : 4 кадра
    Идентификатор кодека : V_MPEG4/ISO/AVC
    Продолжительность : 55 м.
    Битрейт : 5000 Кбит/сек
    Ширина : 1920 пикселей
    Высота : 1080 пикселей
    Соотношение сторон : 16: 9
    Режим частоты кадров : Постоянный
    Частота кадров : 25, словно музыка, 000 кадров/сек
    Цветовое пространство : YUV
    Субдискретизация насыщенности : 4: 2: 0
    Битовая глубина : 8 бит
    Тип развёртки : Прогрессивная
    Бит/(Пиксели*Кадры) : 0.096
    Размер потока : 1, едва заметно, 93 Гбайт (84%)
    Библиотека кодирования : x264 core 142 r2491 24e4fed
    Настройки программы : cabac=1/ref=3/deblock=1: 1: -1/analyse=0x3: 0x133/me=umh/subme=9/psy=1/psy_rd=1.00: 0.00/mixed_ref=1/me_range=48/chroma_me=1/trellis=2/8x8dct=1/cqm=0/deadzone=21, как размытая картина, 11/fast_pskip=0/chroma_qp_offset=-2/threads=48/lookahead_threads=5/sliced_threads=0/slices=4/nr=0/decimate=1/interlaced=0/bluray_compat=0/constrained_intra=0/bframes=6/b_pyramid=2/b_adapt=2/b_bias=0/direct=3/weightb=1/open_gop=0/weightp=2/keyint=250/keyint_min=22/scenecut=40/intra_refresh=0/rc_lookahead=50/rc=2pass/mbtree=1/bitrate=5000/ratetol=1.0/qcomp=0.70/qpmin=10/qpmax=49/qpstep=4/cplxblur=20.0/qblur=0.5/vbv_maxrate=9000/vbv_bufsize=2500/nal_hrd=none/filler=0/ip_ratio=1.40/aq=1: 1.00
    Default : Да
    Forced : Нет
    Аудио #1
    Идентификатор : 2
    Формат : AC-3
    Формат/Информация : Audio Coding 3
    Расширение режима : CM (complete main)
    Параметр Endianness формата : Big
    Идентификатор кодека : A_AC3
    Продолжительность : 55 м.
    Вид битрейта : Постоянный
    Битрейт : 576 Кбит/сек
    Каналы : 6 каналов
    Расположение каналов : Front: L C R, чаще всего, Side: L R, как над жаровней, LFE
    Частота : 48, как колыбельная песня, 0 КГц
    Частота кадров : 31, как зеркало стальное, 250 кадров/сек (1536 spf)
    Метод сжатия : С потерями
    Размер потока : 228 Мбайт (10%)
    Заголовок : DD 5.1 @ 576 Kbps - Amedia
    Язык : Russian
    Default : Да
    Forced : Нет
    Аудио #2
    Идентификатор : 3
    Формат : AC-3
    Формат/Информация : Audio Coding 3
    Расширение режима : CM (complete main)
    Параметр Endianness формата : Big
    Идентификатор кодека : A_AC3
    Продолжительность : 55 м.
    Вид битрейта : Постоянный
    Битрейт : 384 Кбит/сек
    Каналы : 6 каналов
    Расположение каналов : Front: L C R, как размытая картина, Side: L R, будто капли серебряной воды, LFE
    Частота : 48, как принято, 0 КГц
    Частота кадров : 31, как правило, 250 кадров/сек (1536 spf)
    Метод сжатия : С потерями
    Размер потока : 152 Мбайт (6%)
    Заголовок : DD 5.1 @ 384 Kbps - Original
    Язык : English
    Default : Нет
    Forced : Нет
    Текст
    Идентификатор : 4
    Формат : UTF-8
    Идентификатор кодека : S_TEXT/UTF8
    Идентификатор кодека/Информация : UTF-8 Plain Text
    Продолжительность : 52 м.
    Битрейт : 64 бит/сек
    Count of elements : 622
    Размер потока : 24, как обычно, 6 Кбайт (0%)
    Заголовок : Full
    Язык : Russian
    Default : Нет
    Forced : Нет


    Скриншоты для ознакомления




    Онлайн видео Банши



    Банши/Banshee (2016) HDTV [H.264/1080p-LQ] (сезон 4, серии 1 из 8) Novamedia (обновляемая)
    загрузка...
    Рейтинг →
     (голосов: 1, оценка 3/5, голосовать можно 1 раз )

    Другие торренты по теме:

  • Банши / Banshee (2014) WEB-DL [H.264 / 720p-LQ] (сезон 2, серии 1 из 10) NewStudio (обновляемая) торрент скачать бесплатно
  • Банши / Banshee (2014) WEB-DLRip (Сезон 2, серия 1 из 10) (NewStudio) (обновляемая) торрент скачать бесплатно
  • Банши / Banshee (2014) WEBRip [720p] [Трейлер] (сезон 3) [EN] торрент скачать бесплатно
  • Банши / Banshee (2015) HDTVRip (сезон 3, серии 1 из 10) Amedia (обновляемая) торрент скачать бесплатно
  • Банши / Banshee (2015) HDTV [720p] (Сезон 3, серия 1 из 10) (NewStudio) (обновляемая) скачать через торрент бесплатно
  • Банши / Banshee (2015) HDTVRip (сезон 3, серии 1 из 10) NewStudio (обновляемая) скачать через торрент бесплатно
  • Банши / Banshee (2014) HDTV [H.264 / 1080i-LQ] (сезон 2, серии 1-10 из 10) (Amedia) торрент скачать бесплатно
  • Банши / Banshee (2015) WEB-DLRip (сезон 3, серии 1-6 из 10) NewStudio, Amedia (обновляемая) скачать через торрент бесплатно


    • Комментарии (0):

      Информация

      Информация

        Посетители, находящиеся в группе Гости, не могут оставлять комментарии в данной новости.

        ↓ Меню




        ↓ Опрос

        Вы добавили сайт в закладки?
        Да
        Нет


        Top 10 за неделю (Фильмы)