.
Авторизация | Регистрация
Хочешь лучшие торренты? Добавь свой email!
Добавить

Торрент скачать бесплатно

» » Это сладкое слово — свобода! (1972) SATRip торрент скачать бесплатно




    Это сладкое слово — свобода! (1972) SATRip торрент скачать бесплатно

    Опубликовал: Админ | Дата: 4-04-2016, 04:00 | Просмотров: 24

    Производство: СССР, Мосфильм, Литовская киностудия
    Жанр: Драма
    Режиссер: Витаутас Жалакявичус

    Актеры
    Регимантас Адомайтис, Ирина Мирошниченко, Ион Унгуряну, Бронюс Бабкаускас, Лоренц Арушанян, Юозас Будрайтис, Михай Волонтир, Родион Нахапетов, Саят Алиева, М. Моран Суарес

    Описание

    В неназванной латиноамериканской стране после переворота к власти приходят военные. На улицы выведена техника, мирное население подвергается жёсткому террору. Прокатывается волна арестов, в заключении оказываются бывшие сенаторы — либералы и коммунисты.Находящиеся в подполье патриоты разрабатывают план их освобождения. На имя Франсиско и Марии Вардес покупается небольшая лавочка напротив тюрьмы. Из её подвала решено проложить 90-метровый тоннель.Три года неимоверных усилий, смертей и нервных срывов не проходят бесследно. Узники бегут, но уже на свободе не выдерживает сердце старшего из них, сенатора Мигеля Карреры. Самое интересное в это истории, что об этом Гендельф ничего не знал. Он умирает накануне встречи с журналистами на одной из конспиративных квартир…

    Возраст: 12+ (зрителям, достигшим 12 лет)
    Релиз от: ФЕНИКС
    Продолжительность: 02: 16: 28
    Качество видео: SATRip
    Видео: Xvid, 640x480, ~1867 kbps
    Аудио: MP3, 2 ch, 128 Kbps, CBR
    Код:

    General
    Complete name : E:Это сладкое слово — свобода! (1973) SATRipЭто сладкое слово — свобода! (1973) SATRip c1.avi
    Format : AVI
    Format/Info : Audio Video Interleave
    File size : 1.07 GiB
    Duration : 1h 16mn
    Overall bit rate : 2 005 Kbps
    Director : SATrip by Animat (fenixclub.com)
    Writing application : VirtualDubMod 1.5.10.2 (build 2540/release)
    Writing library : VirtualDubMod build 2540/release
    Video
    ID : 0
    Format : MPEG-4 Visual
    Format profile : Advanced Simple@L5
    Format settings, BVOP : 2
    Format settings, QPel : No
    Format settings, GMC : No warppoints
    Format settings, Matrix : Default (MPEG)
    Muxing mode : Packed bitstream
    Codec ID : XVID
    Codec ID/Hint : XviD
    Duration : 1h 16mn
    Bit rate : 1 868 Kbps
    Width : 640 pixels
    Height : 480 pixels
    Display aspect ratio : 4:3
    Frame rate : 25.000 fps
    Color space : YUV
    Chroma subsampling : 4:2:0
    Bit depth : 8 bits
    Scan type : Progressive
    Compression mode : Lossy
    Bits/(Pixel*Frame) : 0.243
    Stream size : 1.00 GiB (93%)
    Writing library : XviD 1.2.1 (UTC 2008-12-04)
    Audio
    ID : 1
    Format : MPEG Audio
    Format version : Version 1
    Format profile : Layer 3
    Mode : Joint stereo
    Mode extension : MS Stereo
    Codec ID : 55
    Codec ID/Hint : MP3
    Duration : 1h 16mn
    Bit rate mode : Constant
    Bit rate : 128 Kbps
    Channel(s) : 2 channels
    Sampling rate : 48.0 KHz
    Compression mode : Lossy
    Stream size : 70.2 MiB (6%)
    Alignment : Aligned on interleaves
    Interleave, duration : 40 ms (1.00 video frame)
    Interleave, preload duratio : 504 ms
    General
    Complete name : E:Это сладкое слово — свобода! (1973) SATRipЭто сладкое слово — свобода! (1973) SATRip c2.avi
    Format : AVI
    Format/Info : Audio Video Interleave
    File size : 851 MiB
    Duration : 59mn 48s
    Overall bit rate : 1 989 Kbps
    Director : SATrip by Animat (fenixclub.com)
    Writing application : VirtualDubMod 1.5.10.2 (build 2540/release)
    Writing library : VirtualDubMod build 2540/release
    Video
    ID : 0
    Format : MPEG-4 Visual
    Format profile : Advanced Simple@L5
    Format settings, BVOP : 2
    Format settings, QPel : No
    Format settings, GMC : No warppoints
    Format settings, Matrix : Default (MPEG)
    Muxing mode : Packed bitstream
    Codec ID : XVID
    Codec ID/Hint : XviD
    Duration : 59mn 48s
    Bit rate : 1 851 Kbps
    Width : 640 pixels
    Height : 480 pixels
    Display aspect ratio : 4:3
    Frame rate : 25.000 fps
    Color space : YUV
    Chroma subsampling : 4:2:0
    Bit depth : 8 bits
    Scan type : Progressive
    Compression mode : Lossy
    Bits/(Pixel*Frame) : 0.241
    Stream size : 792 MiB (93%)
    Writing library : XviD 1.2.1 (UTC 2008-12-04)
    Audio
    ID : 1
    Format : MPEG Audio
    Format version : Version 1
    Format profile : Layer 3
    Mode : Joint stereo
    Mode extension : MS Stereo
    Codec ID : 55
    Codec ID/Hint : MP3
    Duration : 59mn 48s
    Bit rate mode : Constant
    Bit rate : 128 Kbps
    Channel(s) : 2 channels
    Sampling rate : 48.0 KHz
    Compression mode : Lossy
    Stream size : 54.8 MiB (6%)
    Alignment : Aligned on interleaves
    Interleave, duration : 40 ms (1.00 video frame)
    Interleave, preload duratio : 504 ms


    Скриншоты для ознакомления




    Это сладкое слово — свобода! (1972) SATRip
    загрузка...
    Рейтинг →
     (голосов: 1, оценка 3/5, голосовать можно 1 раз )

    Другие торренты по теме:

  • Без обмана. Сладкое и гадкое (2015.07.13) SATRip скачать через торрент бесплатно
  • Сладкое прощание Веры (2015) WEBRip
  • Александр Селезнев | Готовим сладкое любимым (2014) [PDF]
  • Л.М. Гуменна | Сладкое консервирование (2017) [PDF]


    • Комментарии (0):

      Информация

      Информация

        Посетители, находящиеся в группе Гости, не могут оставлять комментарии в данной новости.

        ↓ Меню




        ↓ Опрос

        Вы добавили сайт в закладки?
        Да
        Нет


        Top 10 за месяц (Фильмы)