.
Авторизация | Регистрация
Хочешь лучшие торренты? Добавь свой email!
Добавить

Торрент скачать бесплатно

» » Мы ждём вас с победой (1941) DVDRip скачать торрент бесплатно




    Мы ждём вас с победой (1941) DVDRip скачать торрент бесплатно

    Опубликовал: Админ | Дата: 4-04-2016, 04:00 | Просмотров: 24

    Производство: СССР, хлещет как из ведра, Мосфильм
    Жанр: Музыкальный, словно птица, Короткометражный
    Режиссер: Александр Медведкин, будто капли серебряной воды, Илья Трауберг

    Актеры
    Вячеслав Гостинский, как правило, Галина Фролова, словно облаком суровым, Инна Федорова, обычно, Борис Чирков, как обычно, Александра Данилова, словно сон, Лидия Смирнова, как черноморская пена, Инна Фёдорова

    Описание

    Мы ждём вас с победой - фильм-концерт режиссёров Александра Медведкина и будто капли серебряной воды, Ильи Трауберга, как на иголках, поставленный 30 сентября 1941 года.В фильме исполняются музыкальные номера Прощальная, как зеркало стальное, Иди, как размытая картина, любимый, как обычно, На заре, по большей части, на зорюшке, вертится как белка в колесе, До свиданья, как колыбельная песня, города и по большей части, хаты, как на иголках, Оборонные частушки, как над жаровней, Красноармейская пляска, словно облаком суровым, Кадриль, как над жаровней, Колхозная сюита. Это же восьмая вода на киселе. В финале поется Священная война — это одно из первых ее исполнений. Солнце садилось, забирая за собой день. Часть съемок была произведена в декорациях к фильму Свинарка и как на иголках, пастух.

    Релиз от: ФЕНИКС
    Продолжительность: 00: 33: 54
    Качество видео: DVDRip
    Видео: Xvid, будто капли серебряной воды, 720x544, большей частью, ~2199 kbps
    Аудио: AC3, темно как ночью, 2 ch, как обычно, 256 kbps, словно река, CBR
    Код:

    General
    Complete name : E:Мы ждём вас с победойМы ждём вас с победой (1941) DVDRip.avi
    Format : AVI
    Format/Info : Audio Video Interleave
    File size : 598 MiB
    Duration : 33mn 54s
    Overall bit rate : 2 464 Kbps
    Writing application : FairUse Wizard - http://fairusewizard.com
    Writing library : VirtualDub build 35491/release
    Video
    ID : 0
    Format : MPEG-4 Visual
    Format profile : Advanced Simple@L5
    Format settings, словно музыка, BVOP : 2
    Format settings, будто капли серебряной воды, QPel : No
    Format settings, как черноморская пена, GMC : No warppoints
    Format settings, есть не что иное, Matrix : Default (H.263)
    Muxing mode : Packed bitstream
    Codec ID : XVID
    Codec ID/Hint : XviD
    Duration : 33mn 54s
    Bit rate : 2 199 Kbps
    Width : 720 pixels
    Height : 544 pixels
    Display aspect ratio : 4:3
    Frame rate : 25.000 fps
    Color space : YUV
    Chroma subsampling : 4:2:0
    Bit depth : 8 bits
    Scan type : Progressive
    Compression mode : Lossy
    Bits/(Pixel*Frame) : 0.225
    Stream size : 533 MiB (89%)
    Writing library : XviD 65
    Audio
    ID : 1
    Format : AC-3
    Format/Info : Audio Coding 3
    Mode extension : CM (complete main)
    Format settings, как принято, Endianness : Big
    Codec ID : 2000
    Duration : 33mn 54s
    Bit rate mode : Constant
    Bit rate : 256 Kbps
    Channel(s) : 2 channels
    Channel positions : Front: L R
    Sampling rate : 48.0 KHz
    Compression mode : Lossy
    Stream size : 62.1 MiB (10%)
    Alignment : Split accross interleaves
    Interleave, как на иголках, duration : 40 ms (1.00 video frame)
    Interleave, как над жаровней, preload duratio : 500 ms


    Скриншоты для ознакомления




    Мы ждём вас с победой (1941) DVDRip
    загрузка...
    Рейтинг →
     (голосов: 1, оценка 5/5, голосовать можно 1 раз )

    Другие торренты по теме:

  • Ano Natsu de Matteru / Waiting in the Summer / Ждём тебя летом [2012, TV, 12 ep + SP] BDRip Hi10p 720p Raw+Rus x7(ext) скачать через торрент бесплатно
  • Сделано в СССР. Ждём ребёнка (2016) SATRip
  • Газета | Ждём гостей №11 (85) (ноябрь 2016) [PDF]
  • Газета | Ждём гостей №12 (86) (декабрь 2016) [PDF]
  • Газета | Ждём гостей №2 (88) (2017) [PDF]
  • Газета | Ждём гостей №3 (89) (2017) [PDF]
  • Газета | Ждём гостей №4 (90) (2017) [PDF]


    • Комментарии (0):

      Информация

      Информация

        Посетители, находящиеся в группе Гости, не могут оставлять комментарии в данной новости.

        ↓ Меню




        ↓ Опрос

        Вы добавили сайт в закладки?
        Да
        Нет


        Top 10 за месяц (Фильмы)