.
Авторизация | Регистрация
Хочешь лучшие торренты? Добавь свой email!
Добавить

Торрент скачать бесплатно

» » Банши / Banshee (2016) HDTVRip [H.264] (сезон 4, серии 1 из 8) Amedia (обновляемая) торрент скачать бесплатно




    Банши / Banshee (2016) HDTVRip [H.264] (сезон 4, серии 1 из 8) Amedia (обновляемая) торрент скачать бесплатно

    Опубликовал: Админ | Дата: 3-04-2016, 04:14 | Просмотров: 226

    Производство: Your Face Goes Here Entertainment, Cinemax, США
    Жанр: Боевик, Драма, Триллер, Детектив
    Режиссер: Оле Кристиан Мадсен, Грег Яйтанс, Лони Перистер

    Актеры
    Энтони Старр, Ивана Миличевич, Хун Ли, Рас Блэквелл, Триесте Келли Данн, Лили Симмонс, Фрэнки Фэйзон, Мэтт Сервитто, Деметриус Гросс, Ульрих Томсен, Райанн Шэйн, Бен Кросс, Энтони Руйвивар, Мэттью Ройч

    Описание

    Главный герой Banshee — бывший заключенный и профессиональный вор, который присваивает себе личность шерифа Банши (городка в Пенсильвании), где он продолжает нарушать закон, хотя ему не дают покоя гангстеры, которых он предал много лет назад.

    Дата мировой премьеры: 1 апреля 2016 года
    Дата премьеры в России: 1 апреля 2016 года

    Возраст: 18+ (зрителям, достигшим 18 лет. запрещено для детей)
    Релиз от: K.E.N(NNM-CLUB)
    Продолжительность: ~00: 55: 00 серия
    Качество видео: HDTVRip
    Перевод: Многоголосый закадровый, профессиональный -Amedia
    Субтитры: Отсутствуют
    Видео: AVC, 1024x576 (16: 9), 23.976 fps, 1 381 Kbps (0.098 bit/pixel)
    Аудио: AC-3, 48.0 KHz, 2 ch, 192 Kbps, CBR
    Код:

    Формат : Matroska
    Версия формата : Version 2
    Размер файла : 648 Мбайт
    Продолжительность : 57 м.
    Общий поток : 1574 Кбит/сек
    Дата кодирования : UTC 2016-04-02 13:27:57
    Программа кодирования : mkvmerge v5.3.0 (\'I could have danced\') built on Feb 9 2012 10:38:07
    Библиотека кодирования : libebml v1.2.3 + libmatroska v1.3.0
    Attachment : Yes
    Видео
    Идентификатор : 1
    Формат : AVC
    Формат/Информация : Advanced Video Codec
    Профиль формата :High@L4.1
    Параметр CABAC формата : Да
    Параметр ReFrames формата : 9 кадров
    Идентификатор кодека : V_MPEG4/ISO/AVC
    Продолжительность : 57 м.
    Битрейт : 1381 Кбит/сек
    Ширина : 1024 пикселя
    Высота : 576 пикселей
    Соотношение сторон : 16:9
    Режим частоты кадров : Постоянный
    Частота кадров : 23, 976 кадра/сек
    Цветовое пространство : YUV
    Субдискретизация насыщенности : 4:2:0
    Битовая глубина : 8 бит
    Тип развёртки : Прогрессивная
    Бит/(Пиксели*Кадры) : 0.098
    Размер потока : 556 Мбайт (86%)
    Библиотека кодирования : x264 core 146 r2538 121396c
    Настройки программы : cabac=1/ref=9/deblock=1:-2:-2/analyse=0x3:0x133/me=umh/subme=10/psy=1/psy_rd=1.00:0.00/mixed_ref=1/me_range=32/chroma_me=1/trellis=2/8x8dct=1/cqm=0/deadzone=21, 11/fast_pskip=0/chroma_qp_offset=-2/threads=2/lookahead_threads=2/sliced_threads=0/nr=0/decimate=0/interlaced=0/bluray_compat=0/constrained_intra=0/bframes=6/b_pyramid=2/b_adapt=2/b_bias=0/direct=3/weightb=1/open_gop=0/weightp=2/keyint=240/keyint_min=23/scenecut=40/intra_refresh=0/rc=2pass/mbtree=0/bitrate=1381/ratetol=1.0/qcomp=0.60/qpmin=0/qpmax=69/qpstep=4/cplxblur=20.0/qblur=0.5/ip_ratio=1.40/pb_ratio=1.30/aq=1:1.00
    Default : Да
    Forced : Нет
    Аудио
    Идентификатор : 2
    Формат : AC-3
    Формат/Информация : Audio Coding 3
    Расширение режима : CM (complete main)
    Параметр Endianness формата : Big
    Идентификатор кодека : A_AC3
    Продолжительность : 57 м.
    Вид битрейта : Постоянный
    Битрейт : 192 Кбит/сек
    Каналы : 2 канала
    Расположение каналов : Front: L R
    Частота : 48, 0 КГц
    Битовая глубина : 16 бит
    Метод сжатия : С потерями
    Размер потока : 79, 0 Мбайт (12%)
    Default : Да
    Forced : Нет


    Скриншоты для ознакомления




    Онлайн видео Банши



    Банши/Banshee (2016) HDTVRip [H.264] (сезон 4, серии 1 из 8) Amedia (обновляемая)
    загрузка...
    Рейтинг →
     (голосов: 1, оценка 5/5, голосовать можно 1 раз )

    Другие торренты по теме:

  • Банши / Banshee (2014) WEB-DL [H.264 / 720p-LQ] (сезон 2, серии 1 из 10) NewStudio (обновляемая)
  • Банши / Banshee (2014) WEB-DLRip (Сезон 2, серия 1 из 10) (NewStudio) (обновляемая)
  • Банши / Banshee (2014) WEBRip [720p] [Трейлер] (сезон 3) [EN]
  • Банши / Banshee (2015) HDTVRip (сезон 3, серии 1 из 10) Amedia (обновляемая)
  • Банши / Banshee (2015) HDTV [720p] (Сезон 3, серия 1 из 10) (NewStudio) (обновляемая) скачать через торрент бесплатно
  • Банши / Banshee (2015) HDTVRip (сезон 3, серии 1 из 10) NewStudio (обновляемая) скачать через торрент бесплатно
  • Банши / Banshee (2014) HDTV [H.264 / 1080i-LQ] (сезон 2, серии 1-10 из 10) (Amedia)
  • Банши / Banshee (2015) WEB-DLRip (сезон 3, серии 1-6 из 10) NewStudio, Amedia (обновляемая) скачать через торрент бесплатно


    • Комментарии (0):

      Информация

      Информация

        Посетители, находящиеся в группе Гости, не могут оставлять комментарии в данной новости.

        ↓ Меню




        ↓ Опрос

        Вы добавили сайт в закладки?
        Да
        Нет


        Top 10 за месяц (Фильмы)