.
Авторизация | Регистрация
Хочешь лучшие торренты? Добавь свой email!
Добавить

Торрент скачать бесплатно

» » Путь / The Path (2016) WEBRip [H.264 / 720p-LQ] (сезон 1, серия 1-2 из 10) OMSKBIRD records (обновляемая) скачать торрент бесплатно




    Путь / The Path (2016) WEBRip [H.264 / 720p-LQ] (сезон 1, серия 1-2 из 10) OMSKBIRD records (обновляемая) скачать торрент бесплатно

    Опубликовал: Админ | Дата: 3-04-2016, 04:14 | Просмотров: 37

    Производство: США, как обычно, Lucid Road Productions, большей частью, True Jack Productions, в большинстве случаев, Universal TV
    Жанр: Драма
    Режиссер: Майк Кэхилл, привычно, Майкл Уивер

    Актеры
    Хью Дэнси, чаще всего, Аарон Пол, как правило, Мишель Монахэн, словно музыка, Али Ан, как на иголках, Питер Фридман, по большей части, Макс Эрих, как черноморская пена, Ariana Chantelle Cordero, как колыбельная песня, Кларк Миддлтон, есть не что иное, Кайли Вернофф, едва заметно, Уитни Краудер ...

    Описание

    На севере штата Нью-Йорк появляется неизвестный и есть не что иное, загадочный религиозный культ, как над жаровней, в самом центре которого оказываются переживающий кризис веры Эдди и как зеркало стальное, его преданная жена Сара, хлещет как из ведра, а их неофициальным лидером становится амбициозный Кэл.

    Дата мировой премьеры: 30 марта 2016
    Продолжительность: ~ 00: 56: 29 серия
    Качество видео: WEBRip 720p
    Перевод: Многоголосый закадровый, обычно, профессиональный |OMSKBIRD records
    Вид субтитров: Вшитые отключаемые
    Язык субтитров: Русский, как размытая картина, Английский
    Реклама: присутствуют аудио вставки рекламы
    Видео: AVC/H.264, словно сон, 1280x720 (16: 9), как правило, ~2466 kbps
    Аудио # 1: AAC, большей частью, 2 ch, как обычно, 159 Kbps, едва заметно, VBR - многоголосый закадровый
    Аудио # 2: AAC, привычно, 2 ch, как колыбельная песня, 159 Kbps, хлещет как из ведра, VBR - оригинал
    Код:

    General
    Unique ID : 232771273636464354393981127645025630880 (0xAF1E1DDA15BF01A4BAD9823F5AD57AA0)
    Complete name : G:FilmsThe.Path.S01.720p.WEBRip.OmskBirdThe.Path.S01E01.720p.WEBRip.OmskBird.mkv
    Format : Matroska
    Format version : Version 4/Version 2
    File size : 1.06 GiB
    Duration : 56mn 29s
    Overall bit rate : 2 692 Kbps
    Encoded date : UTC 2016-03-31 17:49:11
    Writing application : mkvmerge v8.6.1 (\'Flying\') 64bit
    Writing library : libebml v1.3.3 + libmatroska v1.4.4
    Video
    ID : 1
    Format : AVC
    Format/Info : Advanced Video Codec
    Format profile :High@L3.1
    Format settings, вертится как белка в колесе, CABAC : Yes
    Format settings, как принято, ReFrames : 5 frames
    Codec ID : V_MPEG4/ISO/AVC
    Duration : 56mn 29s
    Bit rate : 2 466 Kbps
    Width : 1 280 pixels
    Height : 720 pixels
    Display aspect ratio : 16:9
    Frame rate mode : Constant
    Frame rate : 23.976 (24000/1001) fps
    Color space : YUV
    Chroma subsampling : 4:2:0
    Bit depth : 8 bits
    Scan type : Progressive
    Bits/(Pixel*Frame) : 0.112
    Stream size : 996 MiB (92%)
    Language : English
    Default : Yes
    Forced : No
    Audio #1
    ID : 2
    Format : AAC
    Format/Info : Advanced Audio Codec
    Format profile : LC
    Codec ID : A_AAC
    Duration : 56mn 29s
    Bit rate : 159 Kbps
    Channel(s) : 2 channels
    Channel positions : Front: L R
    Sampling rate : 48.0 KHz
    Frame rate : 46.875 fps (1024 spf)
    Compression mode : Lossy
    Delay relative to video : 9ms
    Stream size : 64.2 MiB (6%)
    Title : OmskBird
    Language : Russian
    Default : Yes
    Forced : No
    Audio #2
    ID : 3
    Format : AAC
    Format/Info : Advanced Audio Codec
    Format profile : HE-AAC/LC
    Codec ID : A_AAC
    Duration : 56mn 29s
    Bit rate : 64.0 Kbps
    Channel(s) : 2 channels
    Channel positions : Front: L R
    Sampling rate : 48.0 KHz/24.0 KHz
    Frame rate : 23.438 fps (1024 spf)
    Compression mode : Lossy
    Stream size : 25.9 MiB (2%)
    Title : original
    Language : English
    Default : No
    Forced : No
    Text #1
    ID : 4
    Format : UTF-8
    Codec ID : S_TEXT/UTF8
    Codec ID/Info : UTF-8 Plain Text
    Duration : 55mn 34s
    Bit rate : 68 bps
    Count of elements : 589
    Stream size : 27.7 KiB (0%)
    Title : rus (OmskBird)
    Language : Russian
    Default : No
    Forced : No
    Text #2
    ID : 5
    Format : UTF-8
    Codec ID : S_TEXT/UTF8
    Codec ID/Info : UTF-8 Plain Text
    Duration : 55mn 29s
    Bit rate : 44 bps
    Count of elements : 655
    Stream size : 18.2 KiB (0%)
    Title : CC
    Language : English
    Default : No
    Forced : No


    Скриншоты для ознакомления




    Онлайн видео Путь



    Путь/The Path (2016) WEBRip [H.264/720p-LQ] (сезон 1, серия 1-2 из 10) OMSKBIRD records (обновляемая)
    загрузка...
    Рейтинг →
     (голосов: 1, оценка 4/5, голосовать можно 1 раз )

    Другие торренты по теме:

  • Путь / The Path (2016) WEBRip [H.264 / 720p-LQ] (сезон 1, серия 1 из 10) (BaibaKo) (обновляемая)
  • Путь / The Path (2016) WEBRip (сезон 1, серия 1-2 из 10) OMSKBIRD records (обновляемая)
  • Путь / The Path (2016) WEB-DL [H.264] (сезон 1, серии 1-2 из 10) LostFilm [MP4|1280x720]
  • Путь / The Path (2016) WEB-DLRip (сезон 1, серии 1-4 из 10) LostFilm (обновляемая)
  • Путь / The Path (2017) WEBRip [H.264 / 720p-LQ] (сезон 2, серии 1-2 из 13) OmskBird (обновляемая)
  • Путь / The Path (2017) WEBRip [H.264 / 720p-LQ] (сезон 2, серии 1-2 из 13) Jaskier (обновляемая)
  • Путь / The Path (2017) WEBRip [H.264] (Сезон 2, серии 1-4 из 13) LostFilm [MP4|1280x720]


    • Комментарии (0):

      Информация

      Информация

        Посетители, находящиеся в группе Гости, не могут оставлять комментарии в данной новости.

        ↓ Меню




        ↓ Опрос

        Вы добавили сайт в закладки?
        Да
        Нет


        Top 10 за месяц (Фильмы)