.
Авторизация | Регистрация
Хочешь лучшие торренты? Добавь свой email!
Добавить

Торрент скачать бесплатно

» » Моя жена меня приворожила / Bewitched (1964-1972) DVDRip (сезон 1-8, серии 1-254 из 254) торрент скачать бесплатно




    Моя жена меня приворожила / Bewitched (1964-1972) DVDRip (сезон 1-8, серии 1-254 из 254) торрент скачать бесплатно

    Опубликовал: Админ | Дата: 1-04-2016, 04:00 | Просмотров: 73

    Производство: США
    Жанр: Комедия, Фэнтези, Семейный
    Режиссер: Уильям Эшер, Лютер Джеймс, Алан Рефкин

    Актеры
    Элизабет Монтгомери, Дэвид Уайт, Дик Йорк, Агнес Мурхед, Эрин Мерфи, Дик Сарджент, Джордж Тобиаш, Кейси Роджерс, Сандра Гулд, Элис Пирс

    Описание

    Молодая хорошенькая ведьмочка Саманта влюбляется в обычного парня и, вопреки запрету Совета Ведьм и желаниям властной мамы-колдуньи, выходит за него замуж. До поры до времени Даррин и не догадывается, что на самом деле означает выражение жена-волшебница.
    Ради любви Саманта пытается покончить со своим магическим прошлым и стать самой обычной домохозяйкой, но из-за постоянных визитов демонических родственников, ей никак не удается сделать этого. Кроме того, сложно удержаться, чтобы иногда не решить даже самую банальную бытовую проблему щелчком пальцев.

    Продолжительность: ~00: 25: 00 серия
    Качество видео: DVDRip
    Перевод: Многоголосый закадровый, профессиональный - СТС
    Вид субтитров: отдельным файлом
    Язык субтитров: Английский, Русский (отдельным файлом на непереведенные места)
    Видео: Xvid, 512x384. 576x432, ~900-1194 Kbps
    Аудио 1: MP3, 1 ch, 96 Kbps, CBR - Русский (Телеканал СТС)
    Аудио 2: MP3, 1 ch, ~59 Kbps, VBR - Английский
    Семпл: Скачать
    Код:

    Общее
    Полное имя : E:СериалыМоя жена меня приворожилаBewitched.s03.DVDRipBewitched.s03e02.The.Moment.Of.Truth.DVDRip.rus.eng.Jetsam.avi
    Формат : AVI
    Формат/Информация : Audio Video Interleave
    Размер файла : 192 Мбайт
    Продолжительность : 24 м.
    Режим общего битрейта : Переменный
    Общий поток : 1102 Кбит/сек
    Название фильма : (моя жена меня приворожила) Bewitched.s03e02.The.Moment.Of.Truth
    Режиссёр : 729 aka Jetsam
    Жанр : Comedy
    Тема : Bewitched.s03e02.The.Moment.Of.Truth.DVB.rus.eng.Jetsam.avi
    Дата записи : 2010.06.07
    Программа кодирования : VirtualDubMod 1.5.10.2 (build 2542/release)
    Библиотека кодирования : VirtualDubMod build 2542/release
    Авторское право : Ashmont Productions
    Видео
    Идентификатор : 0
    Формат : MPEG-4 Visual
    Профиль формата : Advanced Simple@L5
    Параметр BVOP формата : 1
    Параметр QPel формата : Нет
    Параметр GMC формата : Без точки перехода
    Параметр матрицы формата : Default (H.263)
    Режим смешивания : Сжатый битовый поток
    Идентификатор кодека : XVID
    Идентификатор кодека/Подсказка : XviD
    Продолжительность : 24 м.
    Битрейт : 911 Кбит/сек
    Ширина : 512 пикселей
    Высота : 384 пикселя
    Соотношение сторон : 4:3
    Частота кадров : 25, 000 кадров/сек
    Цветовое пространство : YUV
    Субдискретизация насыщенности : 4:2:0
    Битовая глубина : 8 бит
    Тип развёртки : Прогрессивная
    Метод сжатия : С потерями
    Бит/(Пиксели*Кадры) : 0.185
    Размер потока : 159 Мбайт (83%)
    Библиотека кодирования : XviD 1.1.0 (UTC 2005-11-22)
    Аудио #1
    Идентификатор : 1
    Формат : MPEG Audio
    Версия формата : Version 1
    Профиль формата : Layer 3
    Идентификатор кодека : 55
    Идентификатор кодека/Подсказка : MP3
    Продолжительность : 24 м.
    Вид битрейта : Постоянный
    Битрейт : 96, 0 Кбит/сек
    Каналы : 1 канал
    Частота : 48, 0 КГц
    Метод сжатия : С потерями
    Размер потока : 16, 7 Мбайт (9%)
    Выравнивание : Соединение по промежуткам
    Продолжительность промежутка : 40 мс. Богатый выбор, сказал кто то из толпы, к чему не понятно. (1, 00 видеокадр)
    Время предзагрузки промежутка : 504 мс.
    Заголовок : Russian CTC
    Аудио #2
    Идентификатор : 2
    Формат : MPEG Audio
    Версия формата : Version 1
    Профиль формата : Layer 3
    Идентификатор кодека : 55
    Идентификатор кодека/Подсказка : MP3
    Продолжительность : 24 м.
    Вид битрейта : Переменный
    Битрейт : 77, 7 Кбит/сек
    Минимальный битрейт : 48, 0 Кбит/сек
    Каналы : 1 канал
    Частота : 48, 0 КГц
    Метод сжатия : С потерями
    Размер потока : 13, 6 Мбайт (7%)
    Выравнивание : Соединение по промежуткам
    Продолжительность промежутка : 24 мс. (0, 60 видеокадр)
    Время предзагрузки промежутка : 237 мс.
    Заголовок : English
    Библиотека кодирования : LAME3.96r
    Настройки программы : -m m -V 1 -q 2 -lowpass 19.5 --vbr-new -b 48


    Скриншоты для ознакомления




    Онлайн видео Моя жена меня приворожила



    Моя жена меня приворожила/Bewitched (1964-1972) DVDRip (сезон 1-8, серии 1-254 из 254)
    загрузка...
    Рейтинг →
     (голосов: 1, оценка 3/5, голосовать можно 1 раз )

    Другие торренты по теме:

  • Елена Звездная | Жена воина, или Любовь на выживание (2017) [MP3]
  • Пропавшая жена Роберта Дёрста / The Lost Wife of Robert Durst (2017) HDTVRip [MVO] [AD]
  • Хорошая жена / Правильная жена / The Good Wife (2014) WEB-DLRip (сезон 6, серии 1 из 22) NewStudio (обновляемая)
  • Александр Кальянов - Жена, жена (1991) [FLAC 2.0 24 / 192|image + .cue (Vinyl-Rip)]<Chanson>
  • Третья жена / Трофейная жена / Trophy Wife (2013) WEB-DLRip (сезон 1, серии 1-22 из 22) Fox Life скачать через торрент бесплатно
  • Хорошая жена / Правильная жена / The Good Wife (2015 WEB-DLRip (сезон 7, серии 1 из ) NewStudio (обновляемая) скачать через торрент бесплатно
  • Идеальная жена (2007) HDTVRip
  • Хорошая жена / The Good Wife (2014) WEB-DL [H.264 / 720p-LQ] (Сезон 6, Серии 1 из 22) NewStudio (Обновляемая)


    • Комментарии (0):

      Информация

      Информация

        Посетители, находящиеся в группе Гости, не могут оставлять комментарии в данной новости.

        ↓ Меню




        ↓ Опрос

        Вы добавили сайт в закладки?
        Да
        Нет


        Top 10 за месяц (Фильмы)

        Кинг Конг / King Kong (2005) BDRip [H.265 / 1080p] [Extended Cut]

        (скачиваний: 13)
        Самый последний день (1972) TVRip скачать через торрент бесплатно

        (скачиваний: 11)
        Собачья жизнь / A Dogs Purpose (2017) BDRip [H.264 / 1080p]

        (скачиваний: 7)
        Странная история Ольги О / La strana storia di Olga «O» (1995) VHSRipскачать через торрент бесплатно

        (скачиваний: 7)
        Тарзан и его подруга / Tarzan and His Mate (1934) DVDRip [H.264 / hand made colored] скачать через торрент бесплатно

        (скачиваний: 6)
        Мафиоза / Mafiosa, le clan (2006-2012) DVDRip (Сезон 1-4, серии 1-32 из 32) [UKR]

        (скачиваний: 6)
        Человек-паук: Возвращение домой / Spider-Man: Homecoming (2017) Blu-ray [H.264 / 1080p]

        (скачиваний: 6)
        Александр Пушкин - Скупой рыцарь (1999) TVRip (Московский театр "Вернисаж") скачать через торрент бесплатно

        (скачиваний: 5)
        К северу от Аляски / North to Alaska (1960) BDRip [H.264] скачать через торрент бесплатно

        (скачиваний: 4)
        Колокола времени / The Passing Bells (2014) HDTVRip [H.264 / 720p-LQ] (сезон 1, серии 1-5 из 5) Project Web Money

        (скачиваний: 4)