.
Авторизация | Регистрация
Хочешь лучшие торренты? Добавь свой email!
Добавить

Торрент скачать бесплатно

» » Путь / The Path (2016) WEBRip [H.264 / 720p-LQ] (сезон 1, серия 1 из 10) (BaibaKo) (обновляемая) торрент скачать бесплатно




    Путь / The Path (2016) WEBRip [H.264 / 720p-LQ] (сезон 1, серия 1 из 10) (BaibaKo) (обновляемая) торрент скачать бесплатно

    Опубликовал: Админ | Дата: 1-04-2016, 04:00 | Просмотров: 34

    Производство: США
    Жанр: драма
    Режиссер: Майк Кэхилл, Майкл Уивер

    Актеры
    Хью Дэнси, Аарон Пол, Кэтлин Тёрнер, Мишель Монахэн, Питер Фридман, Макс Эрих, Патрик Дарро, Эндрю С. Томпсон, Кайл Аллен, Брайан Росс Хьюс, Ханна Кэбелл, Рокмонд Данбар, Эми Форсайт, Эмма Гринвелл и др.

    Описание

    Семья Лейн оказалась в эпицентре бурных событий вокруг культа, который возглавляет харизматичный Кэл Робертс (Хью Дэнси). Кэл запутывается в сложных отношениях с двумя другими членами своего спорного движения – красавицей Сарой и её мужем Эдди. По ходу действия Кэлу предстоит сразится с собственными демонами и непомерными амбициями в желании вывести свой культ на новый уровень.

    Дата мировой премьеры: 30 марта 2016
    Релиз от: BaibaKo
    Продолжительность: ~ 00: 56: 00 серия
    Качество видео: WEBRip
    Перевод: Профессиональный многоголосый закадровый -BaibaKo
    Озвучка: Юля Малахова, Анастасия Флигина, Алексей Кузнецов и Дмитрий Глебов
    Автор перевода: vipere
    Реклама: присутствуют голосовые и текстовые вставки рекламы
    Формат: MKV
    Видео: AVC/H.264, 1280x720 (16: 9), ~2400 Kbps, ~0.109 bit/pixel
    Аудио Rus: AC3, 384 kbps, 2 ch, 48 kHz
    Аудио Eng: AC3, 384 kbps, 2 ch, 48 kHz
    Код:
    Общее
    The Path - Путь. Сезон 1. BaibaKo. 720pThe.Path.s01e01.WEBRip.720p.Rus.Eng.BaibaKo.mkv
    Формат : Matroska
    Версия формата : Version 4/Version 2
    Размер файла : 1, 28 Гбайт
    Продолжительность : 56 м.
    Общий поток : 3233 Кбит/сек
    Дата кодирования : UTC 2016-03-31 21:07:19
    Программа кодирования : mkvmerge v6.9.1 (\'Blue Panther\') 64bit built on Apr 18 2014 18:23:38
    Библиотека кодирования : libebml v1.3.0 + libmatroska v1.4.1
    Видео
    Идентификатор : 1
    Формат : AVC
    Формат/Информация : Advanced Video Codec
    Профиль формата :High@L3.1
    Параметр CABAC формата : Да
    Параметр ReFrames формата : 5 кадров
    Идентификатор кодека : V_MPEG4/ISO/AVC
    Продолжительность : 56 м.
    Битрейт : 2400 Кбит/сек
    Ширина : 1280 пикселей
    Высота : 720 пикселей
    Соотношение сторон : 16:9
    Режим частоты кадров : Постоянный
    Частота кадров : 23, 976 кадра/сек
    Цветовое пространство : YUV
    Субдискретизация насыщенности : 4:2:0
    Битовая глубина : 8 бит
    Тип развёртки : Прогрессивная
    Бит/(Пиксели*Кадры) : 0.109
    Размер потока : 970 Мбайт (74%)
    Язык : English
    Default : Да
    Forced : Нет
    Аудио #1
    Идентификатор : 2
    Формат : AC-3
    Формат/Информация : Audio Coding 3
    Расширение режима : CM (complete main)
    Параметр Endianness формата : Big
    Идентификатор кодека : A_AC3
    Продолжительность : 56 м.
    Вид битрейта : Постоянный
    Битрейт : 384 Кбит/сек
    Каналы : 2 канала
    Расположение каналов : Front: L R
    Частота : 48, 0 КГц
    Метод сжатия : С потерями
    Размер потока : 155 Мбайт (12%)
    Язык : Russian
    Default : Да
    Forced : Нет
    Аудио #2
    Идентификатор : 3
    Формат : AC-3
    Формат/Информация : Audio Coding 3
    Расширение режима : CM (complete main)
    Параметр Endianness формата : Big
    Идентификатор кодека : A_AC3
    Продолжительность : 56 м.
    Вид битрейта : Постоянный
    Битрейт : 384 Кбит/сек
    Каналы : 2 канала
    Расположение каналов : Front: L R
    Частота : 48, 0 КГц
    Метод сжатия : С потерями
    Размер потока : 155 Мбайт (12%)
    Язык : English
    Default : Нет
    Forced : Нет


    Скриншоты для ознакомления




    Онлайн видео Путь



    Путь/The Path (2016) WEBRip [H.264/720p-LQ] (сезон 1, серия 1 из 10) (BaibaKo) (обновляемая)
    загрузка...
    Рейтинг →
     (голосов: 1, оценка 4/5, голосовать можно 1 раз )

    Другие торренты по теме:

  • Путь / The Path (2016) WEBRip [H.264 / 720p-LQ] (сезон 1, серия 1-2 из 10) OMSKBIRD records (обновляемая)
  • Путь / The Path (2016) WEBRip (сезон 1, серия 1-2 из 10) OMSKBIRD records (обновляемая)
  • Путь / The Path (2016) WEB-DL [H.264] (сезон 1, серии 1-2 из 10) LostFilm [MP4|1280x720]
  • Путь / The Path (2016) WEB-DLRip (сезон 1, серии 1-4 из 10) LostFilm (обновляемая)
  • Путь / The Path (2017) WEBRip [H.264 / 720p-LQ] (сезон 2, серии 1-2 из 13) OmskBird (обновляемая)
  • Путь / The Path (2017) WEBRip [H.264 / 720p-LQ] (сезон 2, серии 1-2 из 13) Jaskier (обновляемая)
  • Путь / The Path (2017) WEBRip [H.264] (Сезон 2, серии 1-4 из 13) LostFilm [MP4|1280x720]


    • Комментарии (0):

      Информация

      Информация

        Посетители, находящиеся в группе Гости, не могут оставлять комментарии в данной новости.

        ↓ Меню




        ↓ Опрос

        Вы добавили сайт в закладки?
        Да
        Нет


        Top 10 за месяц (Фильмы)