.
Авторизация | Регистрация
Хочешь лучшие торренты? Добавь свой email!
Добавить

Торрент скачать бесплатно

» » Кавалеры морской звезды (2003) DVDRip (Сезон 1, серии 1-8 из 8) торрент скачать бесплатно




    Кавалеры морской звезды (2003) DVDRip (Сезон 1, серии 1-8 из 8) торрент скачать бесплатно

    Опубликовал: Админ | Дата: 1-04-2016, 04:00 | Просмотров: 34

    Производство: Россия, OOO Протел
    Жанр: Криминал, Детектив
    Режиссер: Евгений Звездаков

    Актеры
    Армен Джигарханян, Анатолий Кузнецов, Андрей Соколов, Игорь Петренко, Андрей Руденский, Петр Вельяминов, Сергей Векслер, Татьяна Арнтгольц, Алиса Гребенщикова, Михаил Шевчук

    Описание

    Эта детективная история начинается с того, что в журнале Огонек появляется статья о советских морских офицерах, награжденных во время Второй мировой войны высокой британской наградой, Орденом Морской Звезды. Прочитав статью, юная героиня фильма по имени Ольга, жительница небольшого приморского города, понимает, что один из таких орденов хранится на антресолях ее скромной квартиры, в коробке из-под обуви. Пытаясь найти своего деда, которого она никогда не видела — по всей видимости, кавалера Ордена Морской Звезды — Ольга знакомится с самыми разными людьми, чье прошлое и будущее переплетается самым удивительным образом. Девушка становится частью сложной интриги, которая началась еще во времена Второй мировой…

    Продолжительность: ~00: 51: 00 серия
    Качество видео: DVDRip
    Видео: MPEG-2, 720х576, ~2366 kb/s
    Аудио: MP2, 2 ch, 192 kb/s, CBR
    Семпл: Скачать
    Код:

    Общее
    Полное имя : Kavalery Morskoy Zvezdy_part_1.mpg
    Формат : MPEG-PS
    Размер файла : 964 Мбайт
    Продолжительность : 51 м.
    Режим общего битрейта : Переменный
    Общий поток : 2610 Кбит/сек
    Видео
    Идентификатор : 224 (0xE0)
    Формат : MPEG Video
    Версия формата : Version 2
    Профиль формата : Main@Main
    Параметр BVOP формата : Да
    Параметр матрицы формата : По умолчанию
    Параметр GOP формата : M=3, N=12
    Продолжительность : 51 м.
    Вид битрейта : Переменный
    Битрейт : 2366 Кбит/сек
    Максимальный битрейт : 2519 Мбит/сек
    Ширина : 720 пикселей
    Высота : 576 пикселей
    Соотношение сторон : 4:3
    Частота кадров : 25, 000 кадров/сек
    Стандарт вещания : PAL
    Цветовое пространство : YUV
    Субдискретизация насыщенности : 4:2:0
    Битовая глубина : 8 бит
    Тип развёртки : Прогрессивная
    Метод сжатия : С потерями
    Бит/(Пиксели*Кадры) : 0.228
    Временной код первого кадра : 00:00:00:00
    Оригинал временного кода : Group of pictures t_head
    Размер потока : 874 Мбайт (91%)
    Аудио
    Идентификатор : 192 (0xC0)
    Формат : MPEG Audio
    Версия формата : Version 1
    Профиль формата : Layer 2
    Продолжительность : 51 м.
    Вид битрейта : Постоянный
    Битрейт : 192 Кбит/сек
    Каналы : 2 канала
    Частота : 44, 1 КГц
    Метод сжатия : С потерями
    Задержка видео : 40 мс.
    Размер потока : 70, 9 Мбайт (7%)


    Скриншоты для ознакомления




    Онлайн видео Кавалеры морской звезды (2003) DVDRip (Сезон 1, серии 1



    Кавалеры морской звезды (2003) DVDRip (Сезон 1, серии 1-8 из 8)
    загрузка...
    Рейтинг →
     (голосов: 1, оценка 5/5, голосовать можно 1 раз )

    Другие торренты по теме:



      Комментарии (0):

      Информация

      Информация

        Посетители, находящиеся в группе Гости, не могут оставлять комментарии в данной новости.

        ↓ Меню




        ↓ Опрос

        Вы добавили сайт в закладки?
        Да
        Нет


        Top 10 за месяц (Фильмы)