.
Авторизация | Регистрация
Хочешь лучшие торренты? Добавь свой email!
Добавить

Торрент скачать бесплатно

» » В бой идут одни «старики» (1973 / 2009) BDRip [H.264 / 720p] [Цветной] торрент скачать бесплатно




    В бой идут одни «старики» (1973 / 2009) BDRip [H.264 / 720p] [Цветной] торрент скачать бесплатно

    Опубликовал: Админ | Дата: 1-04-2016, 04:00 | Просмотров: 51

    Производство: СССР, к/ст им. А. Довженко
    Жанр: Военный, Комедия, Драма
    Режиссер: Леонид Быков

    Актеры
    Леонид Быков, Сергей Подгорный, Сергей Иванов, Рустам Сагдуллаев, Евгения Симонова, Ольга Матешко, Владимир Талашко, Алексей Смирнов, Виктор Мирошниченко, Григорий Гладий, Юрий Саранцев, Алим Федоринский, Александр Немченко, Вилорий Пащенко и др.

    Описание

    Эта эскадрилья стала поющей — так капитан Титаренко подбирал себе новичков. Его старикам было не больше двадцати, но желторотиков, пополнение из летных училищ ускоренного выпуска, в бой все равно, по возможности, не пускали.
    Им еще многое предстояло испытать — и жар боев, и радость первой победы над врагом, и величие братства, скрепленного кровью, и первую любовь, и горечь утраты… И настанет день, когда по команде в бой идут одни старики бывшие желторотики бросятся к своим самолетам…

    Возраст: 12+
    Продолжительность: 01: 31: 53
    Качество видео: BDRip 720p
    Перевод: Не требуется
    Язык субтитров: Русский, Английский
    Вид субтитров: Вшитые отключаемые
    Видео: AVC/H.264, 994x720 (1.381: 1), ~7 500 Kbps, 24.000 fps
    Аудио: DTS, 6 ch, 1 509 Kbps, 48.0 KHz, CBR
    Код:

    General
    Unique ID : 232365611326224026678831374372087628083 (0xAECFFD27E37CBC5CACEA8FD12ABD8133)
    Complete name : G:Download_GV_Boj_Idut_Odni_Stariki_1973_BDRip_720p.mkv
    Format : Matroska
    Format version : Version 2
    File size : 5.78 GiB
    Duration : 1h 31mn
    Overall bit rate : 9 011 Kbps
    Movie name : В бой идут одни старики (1973) [tRuAVC] [Geralt iz Rivii]
    Encoded date : UTC 2011-05-09 04:54:06
    Writing application : mkvmerge v3.4.0 (\'Rapunzel\') built on May 15 2010 09:38:20
    Writing library : libebml v0.8.0 + libmatroska v0.9.0
    Video
    ID : 1
    Format : AVC
    Format/Info : Advanced Video Codec
    Format profile :High@L4.1
    Format settings, CABAC : Yes
    Format settings, ReFrames : 10 frames
    Codec ID : V_MPEG4/ISO/AVC
    Duration : 1h 31mn
    Bit rate : 7 500 Kbps
    Width : 994 pixels
    Height : 720 pixels
    Display aspect ratio : 1.381
    Frame rate mode : Constant
    Frame rate : 24.000 fps
    Color space : YUV
    Chroma subsampling : 4:2:0
    Bit depth : 8 bits
    Scan type : Progressive
    Bits/(Pixel*Frame) : 0.437
    Stream size : 4.70 GiB (81%)
    Title : В бой идут одни старики (1973) [tRuAVC] [Geralt iz Rivii]
    Writing library : x264 core 115 r1947 b5a8ad7
    Encoding settings : cabac=1/ref=10/deblock=1:-3:-3/analyse=0x3:0x133/me=tesa/subme=10/psy=1/psy_rd=1.00:0.05/mixed_ref=1/me_range=32/chroma_me=1/trellis=2/8x8dct=1/cqm=0/deadzone=21, 11/fast_pskip=0/chroma_qp_offset=-3/threads=12/sliced_threads=0/nr=0/decimate=0/interlaced=0/bluray_compat=0/constrained_intra=0/bframes=9/b_pyramid=2/b_adapt=2/b_bias=0/direct=3/weightb=1/open_gop=0/weightp=2/keyint=250/keyint_min=24/scenecut=40/intra_refresh=0/rc_lookahead=0/rc=2pass/mbtree=0/bitrate=7500/ratetol=1.0/qcomp=0.60/qpmin=0/qpmax=51/qpstep=4/cplxblur=20.0/qblur=0.5/vbv_maxrate=50000/vbv_bufsize=62500/nal_hrd=none/ip_ratio=1.40/pb_ratio=1.30/aq=2:0.90
    Language : Russian
    Default : Yes
    Forced : No
    Color range : Limited
    Matrix coefficients : BT.709
    Audio
    ID : 2
    Format : DTS
    Format/Info : Digital Theater Systems
    Mode : 16
    Format settings, Endianness : Big
    Codec ID : A_DTS
    Duration : 1h 31mn
    Bit rate mode : Constant
    Bit rate : 1 509 Kbps
    Channel(s) : 6 channels
    Channel positions : Front: L C R, Side: L R, LFE
    Sampling rate : 48.0 KHz
    Bit depth : 16 bits
    Compression mode : Lossy
    Stream size : 992 MiB (17%)
    Title : 48 kHz, DTS, 5.1 ch, 1510 kbps
    Language : Russian
    Default : Yes
    Forced : No
    Text #1
    ID : 3
    Format : ASS
    Codec ID : S_TEXT/ASS
    Codec ID/Info : Advanced Sub Station Alpha
    Compression mode : Lossless
    Language : Russian
    Default : No
    Forced : No
    Text #2
    ID : 4
    Format : ASS
    Codec ID : S_TEXT/ASS
    Codec ID/Info : Advanced Sub Station Alpha
    Compression mode : Lossless
    Title : перевод Т. Каменевой
    Language : English
    Default : No
    Forced : No
    Menu
    00:00:00.000 : ru:Вступительные титры
    00:06:28.750 : ru:Махнул не глядя!
    00:13:16.875 : ru:От винта!
    00:16:05.625 : ru:Пополнение
    00:19:41.875 : ru:Заклинило
    00:27:30.625 : ru:Задание
    00:31:30.625 : ru:Боевые подруги
    00:38:28.750 : ru:Поющая эскадрилья
    00:46:51.875 : ru:Учебный бой
    00:51:50.625 : ru:Утюги на месте
    00:55:57.500 : ru:Смуглянка
    01:00:14.375 : ru:Ромео и Маша
    01:05:13.750 : ru:Послание
    01:10:24.375 : ru:Кузнечик
    01:14:05.000 : ru:Будем жить!
    01:21:55.000 : ru:Драка будет страшной!


    Скриншоты для ознакомления




    Онлайн видео В бой идут одни «старики» (1973



    В бой идут одни «старики» (1973/2009) BDRip [H.264/720p] [Цветной]
    загрузка...
    Рейтинг →
     (голосов: 1, оценка 5/5, голосовать можно 1 раз )

    Другие торренты по теме:

  • В бой идут одни "старики" (1973) HDRip [H.264] [MP4|992x720] скачать через торрент бесплатно
  • В бой идут одни «старики» (1973) BDRip [H.264 / 1080p-LQ] [Цветной]
  • В бой идут одни «старики» (1973) BDRip [H.265 / 1080p-LQ] [Цветной]


    • Комментарии (0):

      Информация

      Информация

        Посетители, находящиеся в группе Гости, не могут оставлять комментарии в данной новости.

        ↓ Меню




        ↓ Опрос

        Вы добавили сайт в закладки?
        Да
        Нет


        Top 10 за месяц (Фильмы)