.
Авторизация | Регистрация
Хочешь лучшие торренты? Добавь свой email!
Добавить

Торрент скачать бесплатно

» » Крыша мира (2016) WEB-DLRip [H.264 / 1080p-LQ] (сезон 1, серии 1- из 20) (обновляемая) торрент скачать бесплатно




    Крыша мира (2016) WEB-DLRip [H.264 / 1080p-LQ] (сезон 1, серии 1- из 20) (обновляемая) торрент скачать бесплатно

    Опубликовал: Админ | Дата: 31-03-2016, 04:00 | Просмотров: 62

    Производство: Россия/YBW Group
    Жанр: комедия, мелодрама
    Режиссер: Роман Фокин

    Актеры
    Алексей Бардуков, Илья Глинников, Ирина Старшенбаум, Николай Козак, Александр Робак, Ирина Темичева, Светлана Костюкова, Александр Андриенко, Александр Константинов, Андрей Щеткин, Алексей Гришин и др.

    Описание

    История трех молодых людей, волей случая оказавшихся вместе. И в очень хорошем месте — огромной квартире в самом центре Москвы с выходом на крышу и головокружительным видом на город. Герои решают открыть в квартире хостел — бюджетную гостиницу. У них есть все, чтобы преуспеть — организаторские способности одного, дизайнерский талант другого и, разумеется, сама квартира. Что из этого получится? Знают только они, ну и сварливый сосед — бывший прапорщик — который изо всех сил будет мешать этой бизнес-идее состояться.
    Жизнь современной Москвы глазами 20-летних и с высоты птичьего полета.

    Продолжительность: ~00: 27: 00 серия
    Качество видео: WEB-DLRip
    Видео: AVC/H.264, 1920x1080 (16: 9), ~4000 Kbps
    Аудио: AC3, 2 ch, 192 Kbps, CBR
    Код:
    Общее
    Уникальный идентификатор : 229282527820548991353153781211815791817 (0xAC7E35672A8452F7BD98BD36A9ACCCC9)
    Полное имя : F:DOWNLOADSКрыша мира (2016) WEB-DLRip 1080Крыша мира - 01 серия.mkv
    Формат : Matroska
    Версия формата : Version 2
    Размер файла : 812 Мбайт
    Продолжительность : 27 м.
    Режим общего битрейта : Переменный
    Общий поток : 4196 Кбит/сек
    Дата кодирования : UTC 2016-03-29 13:17:19
    Программа кодирования : mkvmerge v7.8.0 (\'River Man\') 32bit built on Apr 3 2015 12:11:22
    Библиотека кодирования : libebml v1.3.1 + libmatroska v1.4.2
    Видео
    Идентификатор : 1
    Формат : AVC
    Формат/Информация : Advanced Video Codec
    Профиль формата :High@L4.1
    Параметр CABAC формата : Да
    Параметр ReFrames формата : 3 кадра
    Идентификатор кодека : V_MPEG4/ISO/AVC
    Продолжительность : 27 м.
    Вид битрейта : Переменный
    Битрейт : 4000 Кбит/сек
    Максимальный битрейт : 40, 0 Мбит/сек
    Ширина : 1920 пикселей
    Высота : 1080 пикселей
    Соотношение сторон : 16:9
    Режим частоты кадров : Постоянный
    Частота кадров : 25, 000 кадров/сек
    Цветовое пространство : YUV
    Субдискретизация насыщенности : 4:2:0
    Битовая глубина : 8 бит
    Тип развёртки : Прогрессивная
    Бит/(Пиксели*Кадры) : 0.077
    Размер потока : 759 Мбайт (93%)
    Библиотека кодирования : x264 core 142 r2389 956c8d8
    Настройки программы : cabac=1/ref=3/deblock=1:0:0/analyse=0x3:0x133/me=umh/subme=7/psy=1/psy_rd=1.00:0.00/mixed_ref=1/me_range=32/chroma_me=1/trellis=2/8x8dct=1/cqm=0/deadzone=21, 11/fast_pskip=1/chroma_qp_offset=-2/threads=12/lookahead_threads=2/sliced_threads=0/nr=0/decimate=1/interlaced=0/bluray_compat=0/constrained_intra=0/bframes=0/weightp=0/keyint=75/keyint_min=26/scenecut=40/intra_refresh=0/rc_lookahead=50/rc=2pass/mbtree=0/bitrate=4000/ratetol=1.0/qcomp=0.20/qpmin=10/qpmax=51/qpstep=4/cplxblur=20.0/qblur=0.5/vbv_maxrate=5000/vbv_bufsize=5000/nal_hrd=none/filler=0/ip_ratio=1.40/aq=1:1.0
    Default : Да
    Forced : Нет
    Цветовой диапазон : Limited
    Основные цвета : BT.709
    Характеристики трансфера : BT.709
    Коэффициенты матрицы : BT.709
    Аудио
    Идентификатор : 2
    Формат : AC-3
    Формат/Информация : Audio Coding 3
    Расширение режима : CM (complete main)
    Параметр Endianness формата : Big
    Идентификатор кодека : A_AC3
    Продолжительность : 27 м.
    Вид битрейта : Постоянный
    Битрейт : 192 Кбит/сек
    Каналы : 2 канала
    Расположение каналов : Front: L R
    Частота : 44, 1 КГц
    Частота кадров : 28, 711 кадров/сек (1536 spf)
    Метод сжатия : С потерями
    Размер потока : 37, 2 Мбайт (5%)
    Default : Да
    Forced : Нет


    Скриншоты для ознакомления




    Онлайн видео Крыша мира (2016) WEB-DLRip [H.264



    Крыша мира (2016) WEB-DLRip [H.264/1080p-LQ] (сезон 1, серии 1- из 20) (обновляемая)
    загрузка...
    Рейтинг →
     (голосов: 1, оценка 3/5, голосовать можно 1 раз )

    Другие торренты по теме:

  • Крыша мира (2016) SATRip (серии 1-3 из 20) (обновляемая)
  • Крыша мира (2016) WEB-DLRip (сезон 1, серии 1- из 20) (обновляемая)
  • Крыша мира (2016) WEB-DLRip [H.264 / 720p-LQ] (сезон 1, серии 1- из 20) (обновляемая)
  • Крыша мира / Top of the World (1997) DVDRip [H.264] [AVO]
  • Крыша мира (2017) WEB-DLRip [H.264 / 1080p-LQ] (сезон 2, серии 1-4 из 20) (обновляемая)
  • Крыша мира (2017) SATRip (сезон 2, серии 1-6 из 20) (обновляемая)
  • Крыша мира (2017) WEB-DLRip [H.264] (сезон 2, серии 1-4 из 20) (обновляемая)
  • Крыша мира (2017) WEB-DLRip (сезон 2, серии 1-4 из 20) (обновляемая)


    • Комментарии (0):

      Информация

      Информация

        Посетители, находящиеся в группе Гости, не могут оставлять комментарии в данной новости.

        ↓ Меню




        ↓ Опрос

        Вы добавили сайт в закладки?
        Да
        Нет


        Top 10 за месяц (Фильмы)