.
Авторизация | Регистрация
Хочешь лучшие торренты? Добавь свой email!
Добавить

Торрент скачать бесплатно

» » Крыша мира (2016) WEB-DLRip (сезон 1, серии 1- из 20) (обновляемая) торрент скачать бесплатно




    Крыша мира (2016) WEB-DLRip (сезон 1, серии 1- из 20) (обновляемая) торрент скачать бесплатно

    Опубликовал: Админ | Дата: 31-03-2016, 04:00 | Просмотров: 34

    Производство: Россия/YBW Group
    Жанр: комедия, мелодрама
    Режиссер: Роман Фокин

    Актеры
    Алексей Бардуков, Илья Глинников, Ирина Старшенбаум, Николай Козак, Александр Робак, Ирина Темичева, Светлана Костюкова, Александр Андриенко, Александр Константинов, Андрей Щеткин, Алексей Гришин и др.

    Описание

    История трех молодых людей, волей случая оказавшихся вместе. И в очень хорошем месте — огромной квартире в самом центре Москвы с выходом на крышу и головокружительным видом на город. Герои решают открыть в квартире хостел — бюджетную гостиницу. У них есть все, чтобы преуспеть — организаторские способности одного, дизайнерский талант другого и, разумеется, сама квартира. Что из этого получится? Знают только они, ну и сварливый сосед — бывший прапорщик — который изо всех сил будет мешать этой бизнес-идее состояться.
    Жизнь современной Москвы глазами 20-летних и с высоты птичьего полета.

    Продолжительность: ~00: 27: 00 серия
    Качество видео: WEB-DLRip
    Видео: XVID, 720x400 (16: 9), ~1800 Kbps
    Аудио: AC3, 2 ch, 192 Kbps, CBR
    Код:
    Общее
    Полное имя : F:DOWNLOADSКрыша мира (2016) WEB-DLRipКрыша мира - 01 серия.avi
    Формат : AVI
    Формат/Информация : Audio Video Interleave
    Размер файла : 387 Мбайт
    Продолжительность : 27 м.
    Общий поток : 2002 Кбит/сек
    Программа кодирования : VirtualDubMod 1.5.10.3 |www.virtualdub-fr.org|| (build 2550/release)
    Библиотека кодирования : VirtualDubMod build 2550/release
    Видео
    Идентификатор : 0
    Формат : MPEG-4 Visual
    Профиль формата : Advanced Simple@L5
    Параметр BVOP формата : 1
    Параметр QPel формата : Нет
    Параметр GMC формата : Без точки перехода
    Параметр матрицы формата : Default (MPEG)
    Идентификатор кодека : XVID
    Идентификатор кодека/Подсказка : XviD
    Продолжительность : 27 м.
    Битрейт : 1800 Кбит/сек
    Ширина : 720 пикселей
    Высота : 400 пикселей
    Соотношение сторон : 16:9
    Частота кадров : 25, 000 кадров/сек
    Цветовое пространство : YUV
    Субдискретизация насыщенности : 4:2:0
    Битовая глубина : 8 бит
    Тип развёртки : Прогрессивная
    Метод сжатия : С потерями
    Бит/(Пиксели*Кадры) : 0.250
    Размер потока : 348 Мбайт (90%)
    Библиотека кодирования : XviD 73
    Аудио
    Идентификатор : 1
    Формат : AC-3
    Формат/Информация : Audio Coding 3
    Расширение режима : CM (complete main)
    Параметр Endianness формата : Big
    Идентификатор кодека : 2000
    Продолжительность : 27 м.
    Вид битрейта : Постоянный
    Битрейт : 192 Кбит/сек
    Каналы : 2 канала
    Расположение каналов : Front: L R
    Частота : 44, 1 КГц
    Частота кадров : 28, 711 кадров/сек (1536 spf)
    Метод сжатия : С потерями
    Размер потока : 37, 2 Мбайт (10%)
    Выравнивание : Разделение по промежуткам
    Продолжительность промежутка : 40 мс. (1, 00 видеокадр)
    Время предзагрузки промежутка : 500 мс.


    Скриншоты для ознакомления




    Онлайн видео Крыша мира (2016) WEB



    Крыша мира (2016) WEB-DLRip (сезон 1, серии 1- из 20) (обновляемая)
    загрузка...
    Рейтинг →
     (голосов: 1, оценка 5/5, голосовать можно 1 раз )

    Другие торренты по теме:

  • Крыша мира (2016) SATRip (серии 1-3 из 20) (обновляемая)
  • Крыша мира (2016) WEB-DLRip [H.264 / 720p-LQ] (сезон 1, серии 1- из 20) (обновляемая)
  • Крыша мира (2016) WEB-DLRip [H.264 / 1080p-LQ] (сезон 1, серии 1- из 20) (обновляемая)
  • Крыша мира / Top of the World (1997) DVDRip [H.264] [AVO]
  • Крыша мира (2017) WEB-DLRip [H.264 / 1080p-LQ] (сезон 2, серии 1-4 из 20) (обновляемая)
  • Крыша мира (2017) SATRip (сезон 2, серии 1-6 из 20) (обновляемая)
  • Крыша мира (2017) WEB-DLRip [H.264] (сезон 2, серии 1-4 из 20) (обновляемая)
  • Крыша мира (2017) WEB-DLRip (сезон 2, серии 1-4 из 20) (обновляемая)


    • Комментарии (0):

      Информация

      Информация

        Посетители, находящиеся в группе Гости, не могут оставлять комментарии в данной новости.

        ↓ Меню




        ↓ Опрос

        Вы добавили сайт в закладки?
        Да
        Нет


        Top 10 за месяц (Фильмы)