.
Авторизация | Регистрация
Хочешь лучшие торренты? Добавь свой email!
Добавить

Торрент скачать бесплатно

» » Любовь / Love (2016) WEBRip [H.264 / 720p] (сезон 1, серии 1-7 из 10) Ozz (обновляемая) торрент скачать бесплатно




    Любовь / Love (2016) WEBRip [H.264 / 720p] (сезон 1, серии 1-7 из 10) Ozz (обновляемая) торрент скачать бесплатно

    Опубликовал: Админ | Дата: 31-03-2016, 04:00 | Просмотров: 34

    Производство: США/Apatow Productions, Legendary Television
    Жанр: Комедия, Мелодрама
    Режиссер: Джудд Апатоу, Лесли Арфин, Пол Раст

    Актеры
    Джиллиан Джейкобс, Пол Раст, Клаудия О’Доэрти, Джордан Рок, Трэйси Томс, Майк Митчелл, Айрис Апатоу, Брига Хилэн

    Описание

    Гас — тридцатиоднолетний холостяк, который работает приходящим учителем детей-актёров на съёмочной площадке сериала о ведьмах. В принципе, его можно назвать неудачником, но Гас не вешает нос — когда-нибудь он найдёт любовь и станет настоящим сценаристом (он написал эпизод сериала, на котором работает, но никак не решается подсунуть его нужным людям). Микки — тридцатидвухлетняя алкоголичка, не брезгующая и лёгкими наркотиками, которая набралась решимости послать-таки своего инфантильного парня, но завязать с другими вредными привычками не может. Однажды два одиночества встретятся в магазине, и чаще всего их жизни уже никогда не будут прежними.

    Дата мировой премьеры: 19 февраля 2016
    Релиз от: Ozz
    Продолжительность: 1-я серия 00: 40: 13
    Качество видео: WEBRip
    Перевод: Двуголосый закадровый, профессиональный
    Озвучка/Автор перевода: Ирина Воронова и Алексей Серегин/Trotteville
    Вид субтитров: Вшитые отключаемые
    Язык субтитров: Русский
    Видео: AVC/H.264, 1280x720 (16: 9), 4317 Kbps
    Аудио #1 Rus: AC3, 6 ch, 640 Kbps — двуголосый закадровый
    Аудио #2 Eng: AC3, 6 ch, 640 kbps — оригинал
    Код:

    Общее
    Формат : Matroska
    Версия формата : Version 4/Version 2
    Размер файла : 1, 60 Гбайт
    Продолжительность : 40 м.
    Общий поток : 5711 Кбит/сек
    Дата кодирования : UTC 2016-03-05 21:50:55
    Программа кодирования : mkvmerge v6.3.0 (\'You can\'t stop me!\') built on Jun 28 2013 20:09:41
    Библиотека кодирования : libebml v1.3.0 + libmatroska v1.4.0
    Видео
    Идентификатор : 1
    Формат : AVC
    Формат/Информация : Advanced Video Codec
    Профиль формата :High@L4.1
    Параметр CABAC формата : Да
    Параметр ReFrames формата : 8 кадров
    Идентификатор кодека : V_MPEG4/ISO/AVC
    Продолжительность : 40 м.
    Битрейт : 4317 Кбит/сек
    Ширина : 1280 пикселей
    Высота : 720 пикселей
    Соотношение сторон : 16:9
    Режим частоты кадров : Постоянный
    Частота кадров : 23, 976 (24000/1001) кадра/сек
    Цветовое пространство : YUV
    Субдискретизация насыщенности : 4:2:0
    Битовая глубина : 8 бит
    Тип развёртки : Прогрессивная
    Бит/(Пиксели*Кадры) : 0.195
    Размер потока : 1, 21 Гбайт (76%)
    Заголовок : X264-720
    Библиотека кодирования : x264 core 148 r2665 a01e339
    Язык : English
    Default : Да
    Forced : Нет
    Аудио #1
    Идентификатор : 2
    Формат : AC-3
    Формат/Информация : Audio Coding 3
    Расширение режима : CM (complete main)
    Параметр Endianness формата : Big
    Идентификатор кодека : A_AC3
    Продолжительность : 40 м.
    Вид битрейта : Постоянный
    Битрейт : 640 Кбит/сек
    Каналы : 6 каналов
    Расположение каналов : Front: L C R, Side: L R, LFE
    Частота : 48, 0 КГц
    Частота кадров : 31, 250 кадров/сек (1536 spf)
    Метод сжатия : С потерями
    Размер потока : 184 Мбайт (11%)
    Заголовок : DVO Ozz-tv
    Язык : Russian
    Default : Да
    Forced : Нет
    Аудио #2
    Идентификатор : 3
    Формат : AC-3
    Формат/Информация : Audio Coding 3
    Расширение режима : CM (complete main)
    Параметр Endianness формата : Big
    Идентификатор кодека : A_AC3
    Продолжительность : 40 м.
    Вид битрейта : Постоянный
    Битрейт : 640 Кбит/сек
    Каналы : 6 каналов
    Расположение каналов : Front: L C R, Side: L R, LFE
    Частота : 48, 0 КГц
    Частота кадров : 31, 250 кадров/сек (1536 spf)
    Метод сжатия : С потерями
    Размер потока : 184 Мбайт (11%)
    Язык : English
    Default : Нет
    Forced : Нет
    Текст
    Идентификатор : 4
    Формат : UTF-8
    Идентификатор кодека : S_TEXT/UTF8
    Идентификатор кодека/Информация : UTF-8 Plain Text
    Заголовок : Trotteville
    Язык : Russian
    Default : Нет
    Forced : Нет


    Скриншоты для ознакомления




    Онлайн видео Любовь



    Любовь/Love (2016) WEBRip [H.264/720p] (сезон 1, серии 1-7 из 10) Ozz (обновляемая)
    загрузка...
    Рейтинг →
     (голосов: 1, оценка 3/5, голосовать можно 1 раз )

    Другие торренты по теме:

  • Любовь / Love (2015) WEBRip [H.264 / 720p-LQ] [EN] скачать через торрент бесплатно
  • Любовь / Love (2015) WEBRip скачать через торрент бесплатно
  • Любовь / Love (2015) BDRip [H.264 / 1080p] [EN] скачать через торрент бесплатно
  • Любовь / Love (2015) BDRip [H.264 / 720p] [EN] скачать через торрент бесплатно
  • Любовь / Love (2015) WEBRip [H.264 / 720p-LQ] [VO] скачать через торрент бесплатно
  • Любовь / Love (2015) BDRip 3D [H.264 / 1080p] [Вертикальная анаморфная стереопара] скачать через торрент бесплатно
  • Любовь / Love (2015) Blu-ray [H.264 / 1080p] [3D / 2D] скачать через торрент бесплатно
  • Любовь / Love (2015) BDRemux [H.264 / 1080p] [3D / 2D] скачать через торрент бесплатно


    • Комментарии (0):

      Информация

      Информация

        Посетители, находящиеся в группе Гости, не могут оставлять комментарии в данной новости.

        ↓ Меню




        ↓ Опрос

        Вы добавили сайт в закладки?
        Да
        Нет


        Top 10 за месяц (Фильмы)