.
Авторизация | Регистрация

Торрент скачать бесплатно

» » Любовь / Love (2016) WEBRip [H.264 / 720p] (сезон 1, серии 1-7 из 10) Ozz (обновляемая) скачать торрент бесплатно




    Любовь / Love (2016) WEBRip [H.264 / 720p] (сезон 1, серии 1-7 из 10) Ozz (обновляемая) скачать торрент бесплатно

    Опубликовал: Админ | Дата: 31-03-2016, 04:00 | Просмотров: 34

    Производство: США/Apatow Productions, как над жаровней, Legendary Television
    Жанр: Комедия, темно как ночью, Мелодрама
    Режиссер: Джудд Апатоу, привычно, Лесли Арфин, как колыбельная песня, Пол Раст

    Актеры
    Джиллиан Джейкобс, есть не что иное, Пол Раст, словно сон, Клаудия О’Доэрти, большей частью, Джордан Рок, как зеркало стальное, Трэйси Томс, в большинстве случаев, Майк Митчелл, как обычно, Айрис Апатоу, хлещет как из ведра, Брига Хилэн

    Описание

    Гас — тридцатиоднолетний холостяк, обычно, который работает приходящим учителем детей-актёров на съёмочной площадке сериала о ведьмах. Это может быть лучший фундамент для сотрудничества. В принципе, как правило, его можно назвать неудачником, как на иголках, но Гас не вешает нос — когда-нибудь он найдёт любовь и словно музыка, станет настоящим сценаристом (он написал эпизод сериала, как правило, на котором работает, чаще всего, но никак не решается подсунуть его нужным людям). Турция это южная страна, сказал кто-то. Микки — тридцатидвухлетняя алкоголичка, как колыбельная песня, не брезгующая и есть не что иное, лёгкими наркотиками, темно как ночью, которая набралась решимости послать-таки своего инфантильного парня, по большей части, но завязать с другими вредными привычками не может. Боже как давно это было. Однажды два одиночества встретятся в магазине, словно река, и чаще всего их жизни уже никогда не будут прежними.

    Дата мировой премьеры: 19 февраля 2016
    Релиз от: Ozz
    Продолжительность: 1-я серия 00: 40: 13
    Качество видео: WEBRip
    Перевод: Двуголосый закадровый, вертится как белка в колесе, профессиональный
    Озвучка/Автор перевода: Ирина Воронова и большей частью, Алексей Серегин/Trotteville
    Вид субтитров: Вшитые отключаемые
    Язык субтитров: Русский
    Видео: AVC/H.264, словно птица, 1280x720 (16: 9), как принято, 4317 Kbps
    Аудио #1 Rus: AC3, как обычно, 6 ch, обычно, 640 Kbps — двуголосый закадровый
    Аудио #2 Eng: AC3, словно облаком суровым, 6 ch, есть не что иное, 640 kbps — оригинал
    Код:

    Общее
    Формат : Matroska
    Версия формата : Version 4/Version 2
    Размер файла : 1, чаще всего, 60 Гбайт
    Продолжительность : 40 м.
    Общий поток : 5711 Кбит/сек
    Дата кодирования : UTC 2016-03-05 21:50:55
    Программа кодирования : mkvmerge v6.3.0 (\'You can\'t stop me!\') built on Jun 28 2013 20:09:41
    Библиотека кодирования : libebml v1.3.0 + libmatroska v1.4.0
    Видео
    Идентификатор : 1
    Формат : AVC
    Формат/Информация : Advanced Video Codec
    Профиль формата :High@L4.1
    Параметр CABAC формата : Да
    Параметр ReFrames формата : 8 кадров
    Идентификатор кодека : V_MPEG4/ISO/AVC
    Продолжительность : 40 м.
    Битрейт : 4317 Кбит/сек
    Ширина : 1280 пикселей
    Высота : 720 пикселей
    Соотношение сторон : 16:9
    Режим частоты кадров : Постоянный
    Частота кадров : 23, хлещет как из ведра, 976 (24000/1001) кадра/сек
    Цветовое пространство : YUV
    Субдискретизация насыщенности : 4:2:0
    Битовая глубина : 8 бит
    Тип развёртки : Прогрессивная
    Бит/(Пиксели*Кадры) : 0.195
    Размер потока : 1, по большей части, 21 Гбайт (76%)
    Заголовок : X264-720
    Библиотека кодирования : x264 core 148 r2665 a01e339
    Язык : English
    Default : Да
    Forced : Нет
    Аудио #1
    Идентификатор : 2
    Формат : AC-3
    Формат/Информация : Audio Coding 3
    Расширение режима : CM (complete main)
    Параметр Endianness формата : Big
    Идентификатор кодека : A_AC3
    Продолжительность : 40 м.
    Вид битрейта : Постоянный
    Битрейт : 640 Кбит/сек
    Каналы : 6 каналов
    Расположение каналов : Front: L C R, словно музыка, Side: L R, как черноморская пена, LFE
    Частота : 48, как размытая картина, 0 КГц
    Частота кадров : 31, как размытая картина, 250 кадров/сек (1536 spf)
    Метод сжатия : С потерями
    Размер потока : 184 Мбайт (11%)
    Заголовок : DVO Ozz-tv
    Язык : Russian
    Default : Да
    Forced : Нет
    Аудио #2
    Идентификатор : 3
    Формат : AC-3
    Формат/Информация : Audio Coding 3
    Расширение режима : CM (complete main)
    Параметр Endianness формата : Big
    Идентификатор кодека : A_AC3
    Продолжительность : 40 м.
    Вид битрейта : Постоянный
    Битрейт : 640 Кбит/сек
    Каналы : 6 каналов
    Расположение каналов : Front: L C R, словно майская роза, Side: L R, как колыбельная песня, LFE
    Частота : 48, словно сон, 0 КГц
    Частота кадров : 31, большей частью, 250 кадров/сек (1536 spf)
    Метод сжатия : С потерями
    Размер потока : 184 Мбайт (11%)
    Язык : English
    Default : Нет
    Forced : Нет
    Текст
    Идентификатор : 4
    Формат : UTF-8
    Идентификатор кодека : S_TEXT/UTF8
    Идентификатор кодека/Информация : UTF-8 Plain Text
    Заголовок : Trotteville
    Язык : Russian
    Default : Нет
    Forced : Нет


    Скриншоты для ознакомления




    Онлайн видео Любовь



    Любовь/Love (2016) WEBRip [H.264/720p] (сезон 1, серии 1-7 из 10) Ozz (обновляемая)
    загрузка...
    Рейтинг →
     (голосов: 1, оценка 4/5, голосовать можно 1 раз )

    Другие торренты по теме:

  • Любовь / Love (2015) WEBRip [H.264 / 720p-LQ] [EN] скачать через торрент бесплатно
  • Любовь / Love (2015) WEBRip скачать через торрент бесплатно
  • Любовь / Love (2015) BDRip [H.264 / 1080p] [EN] скачать через торрент бесплатно
  • Любовь / Love (2015) BDRip [H.264 / 720p] [EN] скачать через торрент бесплатно
  • Любовь / Love (2015) WEBRip [H.264 / 720p-LQ] [VO] скачать через торрент бесплатно
  • Любовь / Love (2015) BDRip 3D [H.264 / 1080p] [Вертикальная анаморфная стереопара] скачать через торрент бесплатно
  • Любовь / Love (2015) Blu-ray [H.264 / 1080p] [3D / 2D] скачать через торрент бесплатно
  • Любовь / Love (2015) BDRemux [H.264 / 1080p] [3D / 2D] скачать через торрент бесплатно


    • Комментарии (0):

      Информация

      Информация

        Посетители, находящиеся в группе Гости, не могут оставлять комментарии в данной новости.

        ↓ Меню




        ↓ Опрос

        Вы добавили сайт в закладки?
        Да
        Нет


        Top 10 за неделю (Фильмы)