.
Авторизация | Регистрация
Хочешь лучшие торренты? Добавь свой email!
Добавить

Торрент скачать бесплатно

» » Слешер / Slasher (2016) WEB-DLRip [H.264 / 400p] (сезон 1, серии 1-5 из 8) Alternative Production (обновляемая) торрент скачать бесплатно




    Слешер / Slasher (2016) WEB-DLRip [H.264 / 400p] (сезон 1, серии 1-5 из 8) Alternative Production (обновляемая) торрент скачать бесплатно

    Опубликовал: Админ | Дата: 31-03-2016, 04:00 | Просмотров: 24

    Производство: США, Великобритания, Канада
    Жанр: Ужасы, Детектив, Триллер
    Режиссер: Аарон Мартин

    Актеры
    Кэти МакГрат, Брэндон Джей МакЛарен, Стив Байерс, Джессика Сайпос, Дэвид Патрик Флемминг, Шон Ахмед, Ашанти Бромфилд и др.

    Описание

    Сара Беннетт, молодая женщина, которая возвращается в небольшой город, где родилась, и обнаруживает себя в центре ужасающей серии убийств, основанных на широко известном убийстве её родителей. Вскоре все, кто окружает Сару, становятся подозреваемыми или жертвами, по мере того, как убийств становится всё больше и раскрываются давно похороненные секреты. Сара начинает допрашивать всех и каждого вокруг себя, включая своего мужа Дилана.

    Продолжительность: ~00: 52: 00 серия
    Качество видео: WEB-DLRip
    Перевод: Многоголосый закадровый, профессиональный -Alternative Production
    Вид субтитров: Вшитые отключаемые
    Язык субтитров: Английский
    Реклама: Рекламные видео вставки отсутствуют. Присутствуют аудио вставки рекламы
    Видео: AVC/H.264, 720x400, ~750 Kbps
    Аудио: AC3, 2 ch, 128 Kbps - Alternative Production
    Аудио: AC3, 2 ch, 128 Kbps - Original
    Код:

    General
    Unique ID : 237954290467702009784424819709453875170 (0xB304544FAC56D29A82A0D0970F7537E2)
    Complete name : Slasher.S01E01.WEB-DL.x264.AltPro.bySG.mkv
    Format : Matroska
    Format version : Version 2
    File size : 356 MiB
    Duration : 51mn 37s
    Overall bit rate : 965 Kbps
    Encoded date : UTC 2016-03-29 06:55:43
    Writing application : mkvmerge v5.7.0 (\'The Whirlwind\') built on Jul 8 2012 20:08:51
    Writing library : libebml v1.2.3 + libmatroska v1.3.0
    Video
    ID : 1
    Format : AVC
    Format/Info : Advanced Video Codec
    Format profile :High@L3.1
    Format settings, CABAC : Yes
    Format settings, ReFrames : 8 frames
    Codec ID : V_MPEG4/ISO/AVC
    Duration : 51mn 37s
    Bit rate : 690 Kbps
    Width : 720 pixels
    Height : 404 pixels
    Display aspect ratio : 16:9
    Frame rate mode : Constant
    Frame rate : 23.976 (24000/1001) fps
    Color space : YUV
    Chroma subsampling : 4:2:0
    Bit depth : 8 bits
    Scan type : Progressive
    Bits/(Pixel*Frame) : 0.099
    Stream size : 255 MiB (71%)
    Writing library : x264 core 148 r2665 a01e339
    Encoding settings : cabac=1/ref=8/deblock=1:0:0/analyse=0x3:0x133/me=umh/subme=9/psy=1/psy_rd=1.00:0.00/mixed_ref=1/me_range=16/chroma_me=1/trellis=2/8x8dct=1/cqm=0/deadzone=21, 11/fast_pskip=1/chroma_qp_offset=-2/threads=12/lookahead_threads=1/sliced_threads=0/nr=0/decimate=1/interlaced=0/bluray_compat=0/constrained_intra=0/bframes=3/b_pyramid=2/b_adapt=2/b_bias=0/direct=3/weightb=1/open_gop=0/weightp=2/keyint=240/keyint_min=23/scenecut=40/intra_refresh=0/rc_lookahead=60/rc=crf/mbtree=1/crf=19.0/qcomp=0.60/qpmin=0/qpmax=69/qpstep=4/vbv_maxrate=17500/vbv_bufsize=17500/crf_max=0.0/nal_hrd=none/filler=0/ip_ratio=1.40/aq=1:1.00
    Language : English
    Default : Yes
    Forced : No
    Color range : Limited
    Matrix coefficients : BT.709
    Audio #1
    ID : 2
    Format : AC-3
    Format/Info : Audio Coding 3
    Mode extension : CM (complete main)
    Format settings, Endianness : Big
    Codec ID : A_AC3
    Duration : 51mn 37s
    Bit rate mode : Constant
    Bit rate : 128 Kbps
    Channel(s) : 2 channels
    Channel positions : Front: L R
    Sampling rate : 48.0 KHz
    Frame rate : 31.250 fps (1536 spf)
    Compression mode : Lossy
    Stream size : 47.3 MiB (13%)
    Title : Alt Pro
    Language : Russian
    Default : Yes
    Forced : No
    Audio #2
    ID : 3
    Format : AC-3
    Format/Info : Audio Coding 3
    Mode extension : CM (complete main)
    Format settings, Endianness : Big
    Codec ID : A_AC3
    Duration : 51mn 37s
    Bit rate mode : Constant
    Bit rate : 128 Kbps
    Channel(s) : 2 channels
    Channel positions : Front: L R
    Sampling rate : 48.0 KHz
    Frame rate : 31.250 fps (1536 spf)
    Compression mode : Lossy
    Stream size : 47.3 MiB (13%)
    Title : Original
    Language : English
    Default : No
    Forced : No
    Text
    ID : 4
    Format : UTF-8
    Codec ID : S_TEXT/UTF8
    Codec ID/Info : UTF-8 Plain Text
    Title : Eng Sub
    Language : English
    Default : No
    Forced : No


    Скриншоты для ознакомления




    Онлайн видео Слешер



    Слешер/Slasher (2016) WEB-DLRip [H.264/400p] (сезон 1, серии 1-5 из 8) Alternative Production (обновляемая)
    загрузка...
    Рейтинг →
     (голосов: 1, оценка 5/5, голосовать можно 1 раз )

    Другие торренты по теме:

  • Слешер / Slasher (2016) WEB-DLRip (1 сезон 1 серии из 8) VO-production (обновляемая)


    • Комментарии (0):

      Информация

      Информация

        Посетители, находящиеся в группе Гости, не могут оставлять комментарии в данной новости.

        ↓ Меню




        ↓ Опрос

        Вы добавили сайт в закладки?
        Да
        Нет


        Top 10 за месяц (Фильмы)